[NamikazeSubs] Your Name - Kimi no Na wa [Collector's Edition] [UHD 4K]

Category:
Date:
2018-06-06 16:37 UTC
Submitter:
Seeders:
13
Information:
No information.
Leechers:
0
File size:
50.1 GiB
Completed:
2971
Info hash:
5ed39742b615123bd4fd4bbc2f54149189bf192c
This is the UHD 4K rip from the original collector's edition of Kimi No Na wa or Your Name.The Quality is outstanding.The colours are better compared to the HK Version General Unique ID : 4907493032765986088037019409773280334 (0x3B1261656CF157994FE3D545CF4BC4E) Complete name : G:\Kimi no Nawa.mkv Format : Matroska Format version : Version 4 / Version 2 File size : 50.1 GiB Duration : 1 h 46 min Overall bit rate : 67.3 Mb/s Encoded date : UTC 2018-06-06 13:47:29 Writing application : mkvmerge v23.0.0 ('The Bride Said No') 64-bit Writing library : libebml v1.3.6 + libmatroska v1.4.9 Video ID : 1 Format : HEVC Format/Info : High Efficiency Video Coding Commercial name : HDR10 Format profile : Main 10@L5.1@High Codec ID : V_MPEGH/ISO/HEVC Duration : 1 h 46 min Bit rate : 56.7 Mb/s Width : 3 840 pixels Height : 2 160 pixels Display aspect ratio : 16:9 Frame rate mode : Constant Frame rate : 23.976 (24000/1001) FPS Color space : YUV Chroma subsampling : 4:2:0 (Type 2) Bit depth : 10 bits Bits/(Pixel*Frame) : 0.285 Stream size : 42.2 GiB (84%) Default : Yes Forced : No Color range : Limited Color primaries : BT.2020 Transfer characteristics : PQ Matrix coefficients : BT.2020 non-constant Mastering display color primaries : BT.2020 Mastering display luminance : min: 0.0050 cd/m2, max: 1000 cd/m2 Maximum Content Light Level : 777 cd/m2 Maximum Frame-Average Light Level : 370 cd/m2 Audio #1 ID : 5 Format : DTS Format/Info : Digital Theater Systems Format profile : MA / Core Codec ID : A_DTS Duration : 1 h 46 min Bit rate mode : Variable / Constant Bit rate : 3 595 kb/s / 1 509 kb/s Channel(s) : 6 channels Channel positions : Front: L C R, Side: L R, LFE Sampling rate : 48.0 kHz Frame rate : 93.750 FPS (512 SPF) Bit depth : 24 bits Compression mode : Lossless / Lossy Stream size : 2.68 GiB (5%) Default : Yes Forced : No Audio #2 ID : 6 Format : DTS Format/Info : Digital Theater Systems Format profile : MA / Core Codec ID : A_DTS Duration : 1 h 46 min Bit rate mode : Variable / Constant Bit rate : 1 641 kb/s / 768 kb/s Channel(s) : 2 channels Channel positions : Front: L R Sampling rate : 48.0 kHz Frame rate : 93.750 FPS (512 SPF) Bit depth : 24 bits Compression mode : Lossless / Lossy Stream size : 1.22 GiB (2%) Default : No Forced : No Audio #3 ID : 7 Format : DTS Format/Info : Digital Theater Systems Format profile : MA / Core Codec ID : A_DTS Duration : 1 h 46 min Bit rate mode : Variable / Constant Bit rate : 3 603 kb/s / 1 509 kb/s Channel(s) : 6 channels Channel positions : Front: L C R, Side: L R, LFE Sampling rate : 48.0 kHz Frame rate : 93.750 FPS (512 SPF) Bit depth : 24 bits Compression mode : Lossless / Lossy Stream size : 2.68 GiB (5%) Default : No Forced : No Audio #4 ID : 8 Format : DTS Format/Info : Digital Theater Systems Format profile : MA / Core Codec ID : A_DTS Duration : 1 h 46 min Bit rate mode : Variable / Constant Bit rate : 1 666 kb/s / 768 kb/s Channel(s) : 2 channels Channel positions : Front: L R Sampling rate : 48.0 kHz Frame rate : 93.750 FPS (512 SPF) Bit depth : 24 bits Compression mode : Lossless / Lossy Stream size : 1.24 GiB (2%) Default : No Forced : No Text #1 ID : 2 Format : PGS Muxing mode : zlib Codec ID : S_HDMV/PGS Codec ID/Info : Picture based subtitle format used on BDs/HD-DVDs Duration : 1 h 45 min Bit rate : 30.7 kb/s Count of elements : 2456 Stream size : 23.2 MiB (0%) Default : Yes Forced : No Text #2 ID : 3 Format : PGS Muxing mode : zlib Codec ID : S_HDMV/PGS Codec ID/Info : Picture based subtitle format used on BDs/HD-DVDs Duration : 1 h 45 min Bit rate : 32.4 kb/s Count of elements : 2919 Stream size : 24.4 MiB (0%) Default : No Forced : No Text #3 ID : 4 Format : PGS Muxing mode : zlib Codec ID : S_HDMV/PGS Codec ID/Info : Picture based subtitle format used on BDs/HD-DVDs Duration : 1 h 45 min Bit rate : 27.2 kb/s Count of elements : 2297 Stream size : 20.5 MiB (0%) Default : No Forced : No Text #4 ID : 9 Format : PGS Muxing mode : zlib Codec ID : S_HDMV/PGS Codec ID/Info : Picture based subtitle format used on BDs/HD-DVDs Duration : 1 h 45 min Bit rate : 40.6 kb/s Count of elements : 3515 Stream size : 30.6 MiB (0%) Default : No Forced : No Please Feel Free To Comment....

File list

  • Kimi no Nawa.mkv (50.1 GiB)
Thanks for this release of Your rope. Can you release Kimi no Na wa as well?

VivekNamikaze47 (uploader)

BANNED User
What is your rope?
> Kimi no Nawa ( ͡° ͜ʖ ͡°)
Your Rope is a JAV parody of Your Name, and it's Kimi no **Nawa** for this one, Kimi no **Na wa** for Your Name.
I wish there was a way to upvote comments on here like there is on Disqus. Also - maybe I'm retarded/missing something, but even with this "4K UHD Collector's Edition" ....how in the hell is the file 50GB+. (PS - I haven't (and won't) be downloading this, I just came for the comments and the insane file size).

VivekNamikaze47 (uploader)

BANNED User
FYI This is a direct rip from the original BDMV . No Compression,4 Lossless DTS Audio with 2 x 5.1 Audio and 2 x 2.1 Audio.The HEVC File is 44 gb on itself.The bitrate is the same as the original BD around 60mb/s (PS - I don't (will never) care what your opinion is) Check out the original BD before shooting the gun.
>The Quality is outstanding nice meme
>how in the hell is the file 50+GB. untouched Bluray ISO/BDMV for 1080p can easily be 25GB and above so 4K version should about just right for 50GB > The colours are better compared to the HK Version do u meant "HD"???
> 23.976fps not 24fps

VivekNamikaze47 (uploader)

BANNED User
No.I mean the HK 4K Version.The video looks better when observed closely.And please check the extras in the video.4 DTS Audio files and 4 subs together comes to 10 gb hence total is 50.1gb Frame rate : 23.976 (24000/1001) FPS.It is 23.976.I never said 24
Totally untouched

VivekNamikaze47 (uploader)

BANNED User
Thanks to your upload.BTW What should i do.Should i put it up as a reupload?.I am new to this stuff
HOlLy fUcK!! This is insanely fUcKing.. what iam even sayin, good fucking jOB duDe!!
Would you keep seeding this shit till I buy a 4K monitor?
Shit like this should never have seeds less than 10
You know what, fuCk anime, It was a fUcKiNg big mistake!
How did you even manage to upload this whole shit! Must have a fUcKiNg internet connection that isn't less than 100mb/s upload speed, what a lucky bAsTarD!
Is this video very dark or is it just on my SDR monitor?
^ It will be dark on SDR monitor, either use other player like mpv player.
Darker than my future, can't see shit lmao. anyone know the fix? (And no, MPV player just plays the file at 2 fps so that's a bad idea).
mpc-qt or mpc-hc+madvr for sdr monitors and ofc a decent machine
why are the colors completely washed out and dull compared to HD version? I have had this experience with everything i have seen in 4K. HD has very bright and crispy colors, while 4K looks like shit. it looks like you have turned the color all the way down to almost monochromatic. yes 4K image is crispier and good, but the colors are ALWAYS washed out. any way to fix this? I even turned colors all the way up, and the 4K version looks almost sepia compared to beautiful and brightly colored HD version...what the actual fUcK?
@satur9dreamer This is an HDR video, you need capable hardware (HDR monitor) to play it correctly, or you can convert HDR to SDR using MPC-BE with madvr and a capable GPU (minimum 1050ti). If you play the HDR directly on SDR monitor, it will ignore the HDR's chroma (color) and lumen (brightness) info and that's why you only see washed out colors and flat contrast.
Ah frig it... I can't resist.
Sankyuu! Incredibly awesome torrent. keep 4k HDR coming
can someone who has downloaded the movie please tell me whether it has English words along with Japanese written words like here in 1st image https://ibb.co/CP0WGzs or it is just in Japanese like here in 2nd image https://ibb.co/hM9W2k3 ? also, can you please add Hindi Track in it? it was not officially dubbed in Hindi but was done unofficially by animetm dubbers - https://www.animetmdubbers.com/2017/06/kimi-no-na-wa-your-name-movie-hindi.html
The needless antagonism of some nyaa commenters sometimes makes me so sad.
plays beautifully on my htpc and 4k hdr tv... if you need help, give me a shout on reddit
Is this Remux by the 4K UHD?
I just wanted to post that the MKV does not state what tracks are what both audio and subs so going to have to run it through VLC to find out what track is what and no chapters either this is definitely not untouched ill post an update once i've worked out what tracks are what. It would of helped if you posted what the audio and subs tracks were but hey more work for me :)
why colors bad ?
@ghost1991 because It's in HDR so you need HDR supported monitor in order to get full colors. But you can use simple plugins to convert those HDR to SDR
Could someone explain why there is 2 of each audio? Seems unnecessary.