Mob Psycho 100 V2_BD720p_English Subbed_(HEVC_10bit_SmoodFlamez)

Category:
Date:
2018-05-25 16:35 UTC
Submitter:
Seeders:
0
Information:
No information.
Leechers:
1
File size:
2.7 GiB
Completed:
41
Info hash:
003728b865676dd8bad68f028385509a9675e283
Title Mob Psycho 100 https://i.imgur.com/HT43GhS.jpg Source DmonHiro Storyline Kageyama Shigeo (a.k.a."Mob")is a 8th grader with psychic abilities.He could bend spoon and lift each objects with his mind from young age, but he slowly begin to withhold from using his ability on public due to the negative attention he keep receiving.Now, the only thing he wants is to become a friend with a girl in his class, Tsubomi. With his psychic"mentor"( who has no psychic power), he continues his daily lifes, attempting to realize his purpose on life. Details Genres: Animation | Action | Comedy | Fantasy Release Date: 11 July 2016 (Japan) Video ID : 1 Format : HEVC Format/Info : High Efficiency Video Coding Format profile : Main 10@L3.1@Main Codec ID : V_MPEGH/ISO/HEVC Duration : 24 min 11 s Width : 1 280 pixels Height : 720 pixels Display aspect ratio : 16:9 Frame rate mode : Constant Frame rate : 23.976 (24000/1001) FPS Color space : YUV Chroma subsampling : 4:2:0 Bit depth : 10 bits Audio ID : 2 Format : Vorbis Format settings, Floor : 1 Codec ID : A_VORBIS Duration : 24 min 11 s Bit rate mode : Variable Bit rate : 96.0 kb/s Channel(s) : 2 channels Sampling rate : 48.0 kHz Frame rate : 63.418 FPS (757 SPF) Compression mode : Lossy Delay relative to video : 9 ms Stream size : 15.0 MiB (6%) Writing library : libVorbis (⛄⛄⛄⛄) (20150105 (⛄⛄⛄⛄)) Language : Japanese Default : Yes Forced : No Comment : Processed by SoX Text ID : 3 Format : ASS Codec ID : S_TEXT/ASS Codec ID/Info : Advanced Sub Station Alpha Duration : 22 min 29 s Bit rate : 258 b/s Count of elements : 448 Compression mode : Lossless Stream size : 42.6 KiB (0%) Default : No Screenshots https://i.imgur.com/eKwbd3r.png https://i.imgur.com/lQshqHV.png Font Included

File list

  • Mob Psycho 100 V2_BD720p_(HEVC_10bit_SmoodFlamez)
    • Screenshots
      • 2018-05-25_093448.png (1.7 MiB)
      • 2018-05-25_093538.png (1.5 MiB)
      • 2018-05-25_093606.png (1.4 MiB)
      • 2018-05-25_093629.png (2.1 MiB)
      • 28750835_910664202449001_3170385261217447936_n.jpg (157.3 KiB)
      • B01J1A7Y1C.09.PT03._SCRMZZZZZZ_.jpg (836.5 KiB)
      • Crunch Bang Linx.ttf (133.4 KiB)
      • maxresdefault-4.jpg (74.3 KiB)
    • 001 - Self-Proclaimed Psychic, Reigen Arataka And Mob_(HEVC_10bit_SmoodFlamez).mkv (231.2 MiB)
    • 002 - Doubts About Youth_(HEVC_10bit_SmoodFlamez).mkv (258.4 MiB)
    • 003 - An Invite To A Meeting_(HEVC_10bit_SmoodFlamez).mkv (241.1 MiB)
    • 004 - Idiots Only Event_(HEVC_10bit_SmoodFlamez).mkv (244.2 MiB)
    • 005 - OCHIMUSA - Psychic Powers And Me_(HEVC_10bit_SmoodFlamez).mkv (166.2 MiB)
    • 006 - Discord - To Become One_(HEVC_10bit_SmoodFlamez).mkv (249.8 MiB)
    • 007 - Exaltation - I've Obained Loss_(HEVC_10bit_SmoodFlamez).mkv (221.4 MiB)
    • 008 - The Older Brother Bows - Destructive Intent_(HEVC_10bit_SmoodFlamez).mkv (212.5 MiB)
    • 009 - Claw - 7th Division_(HEVC_10bit_SmoodFlamez).mkv (198.6 MiB)
    • 010 - The Heinous Aura - Mastermind_(HEVC_10bit_SmoodFlamez).mkv (229.3 MiB)
    • 011 - Leader - Master_(HEVC_10bit_SmoodFlamez).mkv (247.2 MiB)
    • 012 - Mob And Reigen_(HEVC_10bit_SmoodFlamez).mkv (239.1 MiB)