[Yousoro] Aqours - Sora mo Kokoro mo Hareru kara [Aqours 2nd Love Live! HPT Tour] (BD 1280x720 x264 AAC) [5D3FC4FC].mkv

Category:
Date:
2018-05-23 06:36 UTC
Submitter:
Seeders:
0
Information:
No information.
Leechers:
2
File size:
476.4 MiB
Completed:
153
Info hash:
c816535a6cf5e1a13b9875f948ab35fe63323252
Sora mo Kokoro mo Hareru kara performed by Takami Chika, Watanabe You & Sakurauchi Riko. This clip was taken from HAPPY PARTY TRAIN Tour Kobe's leg. **This is just a sample test encode.** Source : BDMV Video : 1280x720 - x264 CRF 18 Audio : AAC 2.0 - qAAC TVBR 127 Not a 10bit encode because I forgot to set `--output-depth 10` lol [dat muscle](https://a.doko.moe/oeynqp.png) ![](https://a.doko.moe/kniuri.png) ```MediaInfo General Unique ID : 67817369140233946396869849490673783833 (0x330526735AD182F69898D6EF0E9A5419) Complete name : C:\Users\kresna\Downloads\Video\[Yousoro] Aqours - Sora mo Kokoro mo Hareru kara [Aqours 2nd Love Live! HPT Tour] (BD 1280x720 x264 AAC) [5D3FC4FC].mkv Format : Matroska Format version : Version 4 / Version 2 File size : 476 MiB Duration : 6 min 14 s Overall bit rate : 10.7 Mb/s Encoded date : UTC 2018-05-23 06:09:02 Writing application : mkvmerge v22.0.0 ('At The End Of The World') 64-bit Writing library : libebml v1.3.5 + libmatroska v1.4.8 Video ID : 1 Format : AVC Format/Info : Advanced Video Codec Format profile : High@L5 Format settings : CABAC / 16 Ref Frames Format settings, CABAC : Yes Format settings, ReFrames : 16 frames Codec ID : V_MPEG4/ISO/AVC Duration : 6 min 14 s Bit rate : 10.3 Mb/s Width : 1 280 pixels Height : 720 pixels Display aspect ratio : 16:9 Frame rate mode : Constant Frame rate : 29.970 (30000/1001) FPS Color space : YUV Chroma subsampling : 4:2:0 Bit depth : 8 bits Scan type : Progressive Bits/(Pixel*Frame) : 0.373 Stream size : 461 MiB (97%) Writing library : x264 core 155 r2901 7d0ff22 Encoding settings : cabac=1 / ref=16 / deblock=1:-1:-2 / analyse=0x3:0x133 / me=umh / subme=10 / psy=1 / psy_rd=0.90:0.00 / mixed_ref=1 / me_range=24 / chroma_me=1 / trellis=2 / 8x8dct=1 / cqm=0 / deadzone=21,11 / fast_pskip=1 / chroma_qp_offset=1 / threads=22 / lookahead_threads=5 / sliced_threads=0 / nr=0 / decimate=0 / interlaced=0 / bluray_compat=0 / constrained_intra=0 / bframes=16 / b_pyramid=2 / b_adapt=2 / b_bias=0 / direct=3 / weightb=1 / open_gop=0 / weightp=2 / keyint=250 / keyint_min=25 / scenecut=40 / intra_refresh=0 / rc_lookahead=100 / rc=crf / mbtree=1 / crf=18.0 / qcomp=0.72 / qpmin=0 / qpmax=69 / qpstep=4 / ip_ratio=1.40 / aq=3:0.95 Language : English Default : Yes Forced : No Color range : Limited Matrix coefficients : BT.709 Audio ID : 2 Format : AAC Format/Info : Advanced Audio Codec Format profile : LC Codec ID : A_AAC-2 Duration : 6 min 14 s Bit rate : 353 kb/s Channel(s) : 2 channels Channel positions : Front: L R Sampling rate : 48.0 kHz Frame rate : 46.875 FPS (1024 SPF) Compression mode : Lossy Delay relative to video : 20 ms Stream size : 15.7 MiB (3%) Language : Japanese Default : Yes Forced : No ```

File list

  • [Yousoro] Aqours - Sora mo Kokoro mo Hareru kara [Aqours 2nd Love Live! HPT Tour] (BD 1280x720 x264 AAC) [5D3FC4FC].mkv (476.4 MiB)