[Plormby] Mary and the Witchs Flower (BDRIP 1080p Dual Audio)

Category:
Date:
2018-05-16 02:50 UTC
Submitter:
Seeders:
10
Information:
No information.
Leechers:
0
File size:
7.8 GiB
Completed:
517
Info hash:
c3d6debb3d6008048262a0574eb4716e484e3577
Video, Jap audio, and subtitles all from [Beatrice-Raws](https://nyaa.si/view/1018359) 1080p release Excluded the extras from Beatrice-Raws to save bandwidth. Forgot where I found the english audio but its slightly quieter. Had to adjust timing on the english audio by something like -7500ms but should be almost dead on. English audio and no subtitles are defaults.

File list

  • Mary and the Witchs Flower.mkv (7.8 GiB)

Comments - 8

Thanks ! Excited to watch this!

Konack (uploader)

User
> Thanks ! Excited to watch this! Watched it myself, gave it an 8/10. Definitely a job well done for the studio's first project. Also wouldn't recommend downloading teino's release found [here](https://nyaa.si/view/1018164). (Its 22GB) If you're choosing between the two I would definitely go with this or Beatrice. I downloaded both and the difference is so minimal I could barely tell even zooming way in and I'm not one to skimp on quality. Here is a screenshot comparison - [Beatrice](https://cdn.discordapp.com/attachments/420433175647617024/446118155958616075/Beatrice-Raws_Mary_to_Majo_no_Hana_BDRip_1920x1040_x264_FLAC.mkv_snapshot_01.02.53_2018.05.15_21.13..png) vs [teino](https://cdn.discordapp.com/attachments/420433175647617024/446118162157666314/Mary.to.Majo.no.Hana.1080p.BluRay.REMUX.DTS-HD.MA.5.1-BKL.mkv_snapshot_01.02.53_2018.05.15_21.14.01.png) Not trying to bash that release but for more than double the storage the improvements are really there. I can provide more screenshots if wanted.
would be nice if you included media info. Like the bitrate for the audio at least, if it's not from the same source.

Konack (uploader)

User
> would be nice if you included media info. Like the bitrate for the audio at least, if it’s not from the same source. Audio #1 ID : 1 Format : AC-3 Format/Info : Audio Coding 3 Format settings, Endianness : Big Codec ID : A_AC3 Duration : 1 h 42 min Bit rate mode : Constant Bit rate : 448 kb/s Channel(s) : 6 channels Channel positions : Front: L C R, Side: L R, LFE Sampling rate : 48.0 kHz Frame rate : 31.250 FPS (1536 SPF) Bit depth : 16 bits Compression mode : Lossy Delay relative to video : 202 ms Stream size : 329 MiB (4%) Title : ENG Language : English Service kind : Complete Main Default : Yes Forced : No Audio #2 ID : 3 Format : FLAC Format/Info : Free Lossless Audio Codec Codec ID : A_FLAC Duration : 1 h 42 min Bit rate mode : Variable Bit rate : 1 473 kb/s Channel(s) : 2 channels Channel positions : Front: L R Sampling rate : 48.0 kHz Frame rate : 11.719 FPS (4096 SPF) Bit depth : 24 bits Stream size : 1.06 GiB (14%) Title : JAP Writing library : libFLAC 1.3.1 (UTC 2014-11-25) Language : Japanese Default : No Forced : No

Konack (uploader)

User
English dub still sounds good, just a tad quite compared to the Japanese audio
can you post video info as well? is it x264, 8bit etc

Konack (uploader)

User
> can you post video info as well? is it x264, 8bit etc Video ID : 2 Format : AVC Format/Info : Advanced Video Codec Format profile : High 10@L5 Format settings, CABAC : Yes Format settings, RefFrames : 4 frames Codec ID : V_MPEG4/ISO/AVC Duration : 1 h 42 min Bit rate : 8 961 kb/s Width : 1 920 pixels Height : 1 040 pixels Display aspect ratio : 1.85:1 Frame rate mode : Constant Frame rate : 23.976 (24000/1001) FPS Color space : YUV Chroma subsampling : 4:2:0 Bit depth : 10 bits Scan type : Progressive Bits/(Pixel*Frame) : 0.187 Stream size : 6.44 GiB (82%) Title : BDrip by Jensen Writing library : x264 core 152 r2851 ba24899 (DJATOM's build) Encoding settings : cabac=1 / ref=4 / deblock=1:1:-1 / analyse=0x3:0x113 / me=umh / subme=9 / psy=1 / psy_rd=1.00:0.00 / mixed_ref=1 / me_range=32 / chroma_me=1 / trellis=2 / 8x8dct=1 / cqm=0 / deadzone=21,11 / fast_pskip=1 / chroma_qp_offset=-2 / threads=32 / lookahead_threads=5 / sliced_threads=0 / nr=0 / decimate=1 / interlaced=0 / bluray_compat=0 / constrained_intra=0 / bframes=9 / b_pyramid=2 / b_adapt=2 / b_bias=0 / direct=1 / weightb=1 / open_gop=0 / weightp=2 / keyint=240 / keyint_min=23 / scenecut=40 / intra_refresh=0 / rc=crf / mbtree=0 / crf=15.0000 / qcomp=0.72 / qpmin=0 / qpmax=81 / qpstep=4 / ip_ratio=1.40 / pb_ratio=1.30 / aq=1:0.85 Language : Japanese Default : Yes Forced : No Color range : Limited Color primaries : BT.709 Transfer characteristics : BT.709 Matrix coefficients : BT.709
ugghhh Hi10 :(