[1988] 小公子セディ-Shoukoushi Cedie-(Little Lord Fauntleroy) TV [01~43][1080P][Arabic Dub].ts

Category:
Date:
2018-05-09 14:21 UTC
Submitter:
Seeders:
0
File size:
39.7 GiB
Completed:
11
Info hash:
2e41502610d86dc122b207aeca0353d6d3694b33
![](https://myanimelist.cdn-dena.com/images/anime/5/3273l.jpg ) Episodes 19,20,21 and 28 are SD DDL: SOON Alternative Titles: English: Little Lord Fauntleroy Synonyms: Sekai Meisaku Gekijou, Little Prince Cedie Japanese: 小公子セディ Information: Type: TV Episodes: 43 Status: Finished Airing Aired: Jan 10, 1988 to Dec 25, 1988 Premiered: Winter 1988 Producers: Fuji TV Studios: Nippon Animation Source: Novel Genres: Slice of Life, Drama, Shoujo Mediainfo: General ID : 50 (0x32) Complete name : D:\anime raw\Omar Hidan\[1988] 小公子セディ-Shoukoushi Cedie-(Little Lord Fauntleroy) TV [01~43][1080P][Arabic Dub].ts\01.ts CompleteName_Last : D:\anime raw\Omar Hidan\[1988] 小公子セディ-Shoukoushi Cedie-(Little Lord Fauntleroy) TV [01~43][1080P][Arabic Dub].ts\43.ts Format : MPEG-TS File size : 38.5 GiB Duration : 19 s 837 ms Overall bit rate mode : Variable Overall bit rate : 6 698 kb/s Video ID : 310 (0x136) Menu ID : 5002 (0x138A) Format : AVC Format/Info : Advanced Video Codec Format version : Version 2 Format profile : Main@L4 Format settings, CABAC : Yes Format settings, RefFrames : 4 frames Codec ID : 27 Duration : 19 s 400 ms Bit rate : 6 173 kb/s Maximum bit rate : 10.0 Mb/s Width : 1 920 pixels Height : 1 080 pixels Display aspect ratio : 16:9 Frame rate : 25.000 FPS Color space : YUV Chroma subsampling : 4:2:0 Bit depth : 8 bits Scan type : Interlaced Scan type, store method : Separated fields Scan order : Top Field First Bits/(Pixel*Frame) : 0.119 Stream size : 14.3 MiB (0%) Color range : Limited Color primaries : BT.709 Transfer characteristics : BT.709 Matrix coefficients : BT.709 Audio ID : 320 (0x140) Menu ID : 5002 (0x138A) Format : MPEG Audio Format version : Version 1 Format profile : Layer 2 Codec ID : 3 Duration : 20 s 832 ms Bit rate mode : Constant Bit rate : 192 kb/s Maximum bit rate : 197 kb/s Channel(s) : 2 channels Sampling rate : 48.0 kHz Compression mode : Lossy Stream size : 488 KiB (0%) Language : Arabic Menu ID : 300 (0x12C) Menu ID : 5002 (0x138A) Duration : 19 s 837 ms List : 310 (0x136) (AVC) / 320 (0x140) (MPEG Audio, Arabic) Language : / Arabic Maximum bit rate : 10192400

File list

  • [1988] 小公子セディ-Shoukoushi Cedie-(Little Lord Fauntleroy) TV [01~43][1080P][Arabic Dub].ts
    • 01.ts (809.3 MiB)
    • 02.ts (803.8 MiB)
    • 03.ts (798.5 MiB)
    • 04.ts (775.3 MiB)
    • 05.ts (783.7 MiB)
    • 06.TS (948.4 MiB)
    • 07.TS (961.6 MiB)
    • 08.TS (992.6 MiB)
    • 09.TS (974.3 MiB)
    • 10.TS (1.0 GiB)
    • 11.TS (1.1 GiB)
    • 12.TS (1.0 GiB)
    • 13.TS (1.1 GiB)
    • 14.TS (1.1 GiB)
    • 15.TS (1.1 GiB)
    • 16.TS (997.4 MiB)
    • 17.TS (1014.4 MiB)
    • 18.TS (1.0 GiB)
    • 19.mpg (322.7 MiB)
    • 20.mpg (324.1 MiB)
    • 21.mpg (332.2 MiB)
    • 22.TS (1.0 GiB)
    • 23.TS (995.1 MiB)
    • 24.TS (956.0 MiB)
    • 25.TS (1.0 GiB)
    • 26.TS (1.1 GiB)
    • 27.TS (1.1 GiB)
    • 28.mpg (306.3 MiB)
    • 29.TS (1004.0 MiB)
    • 30.TS (1.1 GiB)
    • 31.TS (1.1 GiB)
    • 32.TS (968.1 MiB)
    • 33.TS (1.1 GiB)
    • 34.TS (1.0 GiB)
    • 35.TS (1012.5 MiB)
    • 36.TS (1.0 GiB)
    • 37.TS (1.1 GiB)
    • 38.TS (1.0 GiB)
    • 39.TS (1.0 GiB)
    • 40.TS (1.1 GiB)
    • 41.TS (1017.9 MiB)
    • 42.TS (989.4 MiB)
    • 43.TS (993.2 MiB)