[Rin] Fate/stay night: Heaven's Feel I.presage flower (BD 1920x1080 x264 10bit FLAC) [98E4BDBF].mkv

Category:
Date:
2018-05-09 06:08 UTC
Submitter:
Seeders:
60
Information:
No information.
Leechers:
5
File size:
5.6 GiB
Completed:
27427
Info hash:
76eb6dffcfba67a68e5998f900197f7c53ed4e6f
The filename should be includes "10bit" there. My bad. .ass subs re-styled with font. If you are experiencing any problem with the playback video, make sure that you have updated your codec pack to newer version. I recommend [KLCP](https://www.codecguide.com/download_kl.htm) for codec and [mpv](https://mpv.io/) for video player. ``` General Unique ID : 94806624493926868664960634910574829182 (0x47531779E85B4DFB0A1D1E6CB386DE7E) Complete name : X:\Seed\[Rin] Fate stay night - Heaven's Feel I.presage flower (BD 1920x1080 x264 FLAC) [98E4BDBF].mkv Format : Matroska Format version : Version 4 / Version 2 File size : 5.61 GiB Duration : 2 h 0 min Overall bit rate mode : Variable Overall bit rate : 6 658 kb/s Encoded date : UTC 2018-05-09 05:58:58 Writing application : mkvmerge v22.0.0 ('At The End Of The World') 64-bit Writing library : libebml v1.3.5 + libmatroska v1.4.8 Attachments : meta-medium-roman.ttf Video ID : 1 Format : AVC Format/Info : Advanced Video Codec Format profile : High 10@L4 Format settings : CABAC / 4 Ref Frames Format settings, CABAC : Yes Format settings, ReFrames : 4 frames Codec ID : V_MPEG4/ISO/AVC Duration : 2 h 0 min Bit rate : 4 398 kb/s Width : 1 920 pixels Height : 1 080 pixels Display aspect ratio : 16:9 Frame rate mode : Constant Frame rate : 23.976 (24000/1001) FPS Color space : YUV Chroma subsampling : 4:2:0 Bit depth : 10 bits Scan type : Progressive Bits/(Pixel*Frame) : 0.088 Stream size : 3.70 GiB (66%) Title : BD 1080p 10bit Writing library : x264 core 155 r2893 b00bcaf Encoding settings : cabac=1 / ref=4 / deblock=1:-1:-1 / analyse=0x3:0x113 / me=hex / subme=8 / psy=1 / psy_rd=0.80:0.00 / mixed_ref=1 / me_range=16 / chroma_me=1 / trellis=1 / 8x8dct=1 / cqm=0 / deadzone=21,11 / fast_pskip=1 / chroma_qp_offset=-2 / threads=12 / lookahead_threads=2 / sliced_threads=0 / nr=0 / decimate=1 / interlaced=0 / bluray_compat=0 / constrained_intra=0 / bframes=3 / b_pyramid=2 / b_adapt=2 / b_bias=0 / direct=3 / weightb=1 / open_gop=0 / weightp=2 / keyint=250 / keyint_min=23 / scenecut=40 / intra_refresh=0 / rc_lookahead=50 / rc=crf / mbtree=1 / crf=16.0 / qcomp=0.60 / qpmin=0 / qpmax=81 / qpstep=4 / ip_ratio=1.40 / aq=1:1.00 Language : Japanese Default : Yes Forced : No Color range : Limited Matrix coefficients : BT.709 Audio ID : 2 Format : FLAC Format/Info : Free Lossless Audio Codec Codec ID : A_FLAC Duration : 2 h 0 min Bit rate mode : Variable Bit rate : 2 258 kb/s Channel(s) : 6 channels Channel positions : Front: L C R, Back: L R, LFE Sampling rate : 48.0 kHz Frame rate : 10.417 FPS (4608 SPF) Bit depth : 24 bits Stream size : 1.90 GiB (34%) Title : FLAC 5.1 Writing library : ShanaEncoder Language : Japanese Default : Yes Forced : No Text ID : 3 Format : ASS Codec ID : S_TEXT/ASS Codec ID/Info : Advanced Sub Station Alpha Duration : 2 h 0 min Bit rate : 73 b/s Count of elements : 1124 Compression mode : Lossless Stream size : 64.6 KiB (0%) Title : English (Re-styled Dialogue) Language : English Default : Yes Forced : No Menu 00:00:00.000 : :Chapter 01 00:04:19.884 : :Chapter 02 00:09:07.838 : :Chapter 03 00:12:32.126 : :Chapter 04 00:19:47.394 : :Chapter 05 00:26:44.102 : :Chapter 06 00:29:58.004 : :Chapter 07 00:34:50.922 : :Chapter 08 00:40:10.991 : :Chapter 09 00:47:07.574 : :Chapter 10 00:52:19.177 : :Chapter 11 00:59:06.543 : :Chapter 12 01:07:36.886 : :Chapter 13 01:15:41.119 : :Chapter 14 01:20:32.202 : :Chapter 15 01:24:49.417 : :Chapter 16 01:30:56.742 : :Chapter 17 01:38:43.417 : :Chapter 18 01:44:11.370 : :Chapter 19 01:51:28.473 : :Chapter 20 01:53:39.312 : :Chapter 21 01:59:21.154 : :Chapter 22 How to make a spoiler tags on markdown? ```

File list

  • [Rin] Fate stay night - Heaven's Feel I.presage flower (BD 1920x1080 x264 FLAC) [98E4BDBF].mkv (5.6 GiB)
Thank you, downloading :)
I Can't donlod torent :( why? why? you have website, brother?
No 855p meme res?

kresbayyy (uploader)

User
@Jangan-nanya : Try to stop the download progress and restart your torrent client app, then resume the download progress. @NoAiOne : Do it yourself. ~~And where is my GTV memes?~~
@kresbayy : thank you! @jangan-nanya : iam now downloading via zipyshare, https://animetosho.org/view/rin-fate-stay-night-heavens-feel-presage-flower.n1035207
Many, many thanks You have made my night!
The subs are official right? And sankyuu so much :)
Can someone upload the sub alone please?

kresbayyy (uploader)

User
@NightCrawler : Yes. I just re-styled the dialogue text with proper font. @NagoyaR : Just grab it from Animetosho.
@kresbayyy thanks didn't know that was possible
@NagoyaR: you can download via AT or [here](https://storage.animetosho.org/attachpack/516557/%5BRin%5D%20Fate%20stay%20night%20-%20Heaven%27s%20Feel%20I.presage%20flower%20%28BD%201920x1080%20x264%20FLAC%29%20%5B98E4BDBF%5D_attachments.7z)
part 2 this year ?
Part 2 this year. But if you just waiting for pirate version then it would be around next year.
hey buddy don't falsely advertise. if you don't got the subtitles then don't put it in the subtitle category.

kresbayyy (uploader)

User
@Fu-reiji : Did you read the description box? ``` Text ID : 3 Format : ASS Codec ID : S_TEXT/ASS Codec ID/Info : Advanced Sub Station Alpha Duration : 2 h 0 min Bit rate : 73 b/s Count of elements : 1124 Compression mode : Lossless Stream size : 64.6 KiB (0%) Title : English (Re-styled Dialogue) Language : English Default : Yes Forced : No ```
may be Fu-reiji using some kind of weird video player that make subtitles won't show up........
![](https://cdn.discordapp.com/emojis/434550448716775425.png?v=1)
Yorokobe Shounen
can i play it without playback errors in MPC-HC with CCCP codec?
\>using shit and very outdated codec.
@zykeeper Yes, it should work fine... unless you're running a toaster that won't handle the encode.
>11503 Congrats...^^
Guys apparently someone share and post this torrent link on youtube, his channel is HM alter, video link : https://youtu.be/zpEVSARPx9w is it fine ? i just afraid that this might be get reported or copyrighted if somene from "offcial" reported
Can someone give me a link for subs?
Hello! Can someone give me an audio that is AC3 or AAC? Can't play it on my TV. :'(
Good fucking lord, 4 398 kb/s video bit-rate for this movie!?? You gotta be kidding. This is shit quality. Just download the 33 GB BD REMUX, people. But I guess all who downloaded this have toaster computers or dont give a shit about the video quality. Anybody who downloaded this horrible quality is NOT a fan.
Holy shit these subtitles are awful. I'm not a nitpicker when it comes to things, but something like replacing oniichan with "Mr. Redhead"? Are you serious?
@ggl3dde Welcome to the land of official subtitles.