[1990] 楽しいムーミン一家-Tanoshii Muumin Ikka-(Mumins) TV [01~45][1080P][Arabic Dub].ts

Category:
Date:
2018-05-08 11:05 UTC
Submitter:
Seeders:
0
File size:
68.1 GiB
Completed:
17
Info hash:
9f1d2c30936f5980f67a595ec78dedf440385d22
![](https://myanimelist.cdn-dena.com/images/anime/5/26759l.jpg ) DDL: https://mega.nz/#F!PJF3RAzY!7-G3dKox1_tOhM7zocU9lw Alternative Titles: Synonyms: Mumins, Delightful Moomin Family, Fun Family Moomin, The Moomins Japanese: 楽しいムーミン一家 Information: Type: TV Episodes: 78 Status: Finished Airing Aired: Apr 12, 1990 to Oct 3, 1991 Premiered: Spring 1990 Producers: TV Tokyo, Starchild Records Studios: Telescreen BV Source: Book Genres: Adventure, Comedy, Fantasy, Kids, Slice of Life Mediainfo: General ID : 1 (0x1) Complete name : D:\anime raw\Omar Hidan\[1990] 楽しいムーミン一家-Tanoshii Muumin Ikka-(Mumins) TV [01~45][1080P][Arabic Dub].ts\01.ts CompleteName_Last : D:\anime raw\Omar Hidan\[1990] 楽しいムーミン一家-Tanoshii Muumin Ikka-(Mumins) TV [01~45][1080P][Arabic Dub].ts\45.ts Format : MPEG-TS [Qatar TV HD] File size : 68.0 GiB Duration : 20 min 39 s Overall bit rate mode : Variable Overall bit rate : 471 Mb/s Video ID : 401 (0x191) Menu ID : 4 (0x4) Format : AVC Format/Info : Advanced Video Codec Format profile : Main@L4 Format settings, CABAC : Yes Format settings, RefFrames : 4 frames Format settings, GOP : M=3, N=12 Codec ID : 27 Duration : 20 min 39 s Bit rate : 448 Mb/s Width : 1 920 pixels Height : 1 080 pixels Display aspect ratio : 16:9 Frame rate : 25.000 FPS Color space : YUV Chroma subsampling : 4:2:0 Bit depth : 8 bits Scan type : Interlaced Scan type, store method : Separated fields Scan order : Top Field First Bits/(Pixel*Frame) : 8.634 Stream size : 64.6 GiB (95%) Color range : Limited Color primaries : BT.709 Transfer characteristics : BT.709 Matrix coefficients : BT.709 Audio ID : 402 (0x192) Menu ID : 4 (0x4) Format : MPEG Audio Format version : Version 1 Format profile : Layer 2 Codec ID : 3 Duration : 20 min 39 s Bit rate mode : Constant Bit rate : 128 kb/s Channel(s) : 2 channels Sampling rate : 48.0 kHz Compression mode : Lossy Delay relative to video : -40 ms Stream size : 18.9 MiB (0%) Language : Arabic

File list

  • [1990] 楽しいムーミン一家-Tanoshii Muumin Ikka-(Mumins) TV [01~45][1080P][Arabic Dub].ts
    • 01.ts (1.5 GiB)
    • 02.ts (1.5 GiB)
    • 03.ts (1.5 GiB)
    • 04.ts (1.5 GiB)
    • 05.ts (1.5 GiB)
    • 06.ts (1.5 GiB)
    • 07.ts (1.5 GiB)
    • 08.ts (1.5 GiB)
    • 09.ts (1.5 GiB)
    • 10.ts (1.5 GiB)
    • 11.ts (1.5 GiB)
    • 12.ts (1.5 GiB)
    • 13.ts (1.5 GiB)
    • 14.ts (1.5 GiB)
    • 15.ts (1.5 GiB)
    • 16.ts (1.5 GiB)
    • 17.ts (1.5 GiB)
    • 18.ts (1.5 GiB)
    • 19.ts (1.5 GiB)
    • 20.ts (1.5 GiB)
    • 21.ts (1.5 GiB)
    • 22.ts (1.5 GiB)
    • 23.ts (1.5 GiB)
    • 24.ts (1.5 GiB)
    • 25.ts (1.5 GiB)
    • 26.ts (1.5 GiB)
    • 27.ts (1.5 GiB)
    • 28.ts (1.5 GiB)
    • 29.ts (1.5 GiB)
    • 30.ts (1.5 GiB)
    • 31.ts (1.5 GiB)
    • 32.ts (1.5 GiB)
    • 33.ts (1.5 GiB)
    • 34.ts (1.5 GiB)
    • 35.ts (1.5 GiB)
    • 36.ts (1.4 GiB)
    • 37.ts (1.5 GiB)
    • 38.ts (1.5 GiB)
    • 39.ts (1.5 GiB)
    • 40.ts (1.5 GiB)
    • 41.ts (1.5 GiB)
    • 42.ts (1.6 GiB)
    • 43.ts (1.6 GiB)
    • 44.ts (1.5 GiB)
    • 45.ts (1.5 GiB)
    • ED.ts (67.3 MiB)
    • OP.ts (104.9 MiB)
no seeders ):