[UM-Raws] Saint Snow PRESENTS LOVELIVE! SUNSHINE!! HAKODATE UNIT CARNIVAL Day2 [WEB-DL][H264][720p][AAC][E375985C].mp4

Category:
Date:
2018-05-05 07:02 UTC
Submitter:
Anonymous
Seeders:
0
Information:
No information.
Leechers:
0
File size:
2.5 GiB
Completed:
886
Info hash:
0609c61ecdbae044fcb56d7c05ceb237e0151e86
#### Please continue seeding Senpai, if possible ? ![alt text](https://i.imgur.com/0RNPTt3.png) #### MediaInfo : ``` General Complete name : [UM-Raws] Saint Snow PRESENTS LOVELIVE! SUNSHINE!! HAKODATE UNIT CARNIVAL Day2 [WEB-DL][H264][720p][AAC][E375985C].mp4 Format : MPEG-4 Format profile : Base Media Codec ID : isom (isom/iso2/avc1/mp42) File size : 2.48 GiB Duration : 2 h 25 min Overall bit rate mode : Variable Overall bit rate : 2 438 kb/s Writing application : Lavf55.33.100 Video ID : 1 Format : AVC Format/Info : Advanced Video Codec Format profile : High@L4.1 Format settings, CABAC : Yes Format settings, RefFrames : 4 frames Format settings, GOP : M=3, N=25 Codec ID : avc1 Codec ID/Info : Advanced Video Coding Duration : 2 h 25 min Bit rate : 2 200 kb/s Width : 1 280 pixels Height : 720 pixels Display aspect ratio : 16:9 Frame rate mode : Constant Frame rate : 30.000 FPS Color space : YUV Chroma subsampling : 4:2:0 Bit depth : 8 bits Scan type : Progressive Bits/(Pixel*Frame) : 0.080 Stream size : 2.19 GiB (88%) Writing library : x264 core 132 Encoding settings : cabac=1 / ref=1 / deblock=1:0:0 / analyse=0x3:0x113 / me=hex / subme=2 / psy=1 / psy_rd=1.00:0.00 / mixed_ref=0 / me_range=16 / chroma_me=1 / trellis=1 / 8x8dct=1 / cqm=0 / deadzone=21,11 / fast_pskip=1 / chroma_qp_offset=0 / threads=4 / lookahead_threads=1 / sliced_threads=0 / nr=0 / decimate=1 / interlaced=0 / bluray_compat=0 / constrained_intra=0 / bframes=2 / b_pyramid=2 / b_adapt=1 / b_bias=0 / direct=1 / weightb=1 / open_gop=0 / weightp=1 / keyint=25 / keyint_min=13 / scenecut=40 / intra_refresh=0 / rc_lookahead=1 / rc=abr / mbtree=1 / bitrate=2200 / ratetol=0.1 / qcomp=0.60 / qpmin=1 / qpmax=35 / qpstep=2 / ip_ratio=1.40 / aq=1:1.00 Audio (Fixed by UM) ID : 2 Format : AAC Format/Info : Advanced Audio Codec Format profile : LC Codec ID : 40 Duration : 2 h 25 min Bit rate mode : Variable Bit rate : 279 kb/s Maximum bit rate : 320 kb/s Channel(s) : 2 channels Channel positions : Front: L R Sampling rate : 48.0 kHz Frame rate : 46.875 FPS (1024 SPF) Compression mode : Lossy Stream size : 291 MiB (11%) Default : Yes Alternate group : 1 ``` ![alt text](https://i.imgur.com/Auqibq0.png)

File list

  • [UM-Raws] Saint Snow PRESENTS LOVELIVE! SUNSHINE!! HAKODATE UNIT CARNIVAL Day2 [WEB-DL][H264][720p][AAC][E375985C].mp4 (2.5 GiB)
> You fix the delayed audio. Thanks.
> yeah. u're welcome ?
FIX Delayed Audio? ![](https://scontent-sit4-1.xx.fbcdn.net/v/t1.15752-9/31906774_148728999315049_4838543614021730304_n.jpg?_nc_cat=0&_nc_eui2=v1%3AAeGzPW6V9vLYDKB3fwvGQMo0REck94kDlQaLYth9UY9QiTLeW06b3C4wrxpus1J-tKd8IsVL2xOY0eJFAs965r5A3wx13eaj0AOlfhrOYYCzhw&oh=cd090404435b28c7ebfdf12070b844ed&oe=5B5C43FE)
ts file please... and day1...
@You_Watanabe ya, u're welcome-zura ?
> ts file please… nope! MP4 with frame rate 30fps is better for now, so it can be played in any video player ? > and day1… mada... :3
Is this one also interlaced?
Thank you for actually uploading the real deal, and not being an ass like the guy who kept uploading fake ones! Wish the quality was better, but still worth the download~
can someone Seed this please?