[A-S_&_SHS] Tenjou Tenge OVA (2005) The Past Chapter

Category:
Date:
2018-04-30 08:29 UTC
Submitter:
Seeders:
2
File size:
1.4 GiB
Completed:
429
Info hash:
6753f254a51fa6526e88a2e92b7092fdd9fe1dd1
Anime-Station & Shinsen-Subs Takayanagi Mitsuomi and Natsume Maya both want to become stronger. On there way to becoming the best they learn that there are many things going on behind the scenes, and Shin, Maya's brother, may be the cause of it all. Mitsuomi feels that he is the only one that can stop him... Source: ANN MPC-HC Media Info General Complete name : Tenjou_Tenge._The_Past_Chapter_-_Part_1_-_OVA_-_[A-S_&_SHS](0db9c228).avi Format : AVI Format/Info : Audio Video Interleave File size : 698 MiB Duration : 40mn 56s Overall bit rate mode : Variable Overall bit rate : 2 383 Kbps Writing application : VirtualDubMod 1.5.10.1 (build 2439/release) Writing library : VirtualDubMod build 2439/release segm :  Video ID : 0 Format : MPEG-4 Visual Format profile : Simple@L3 Format settings, BVOP : 2 Format settings, QPel : No Format settings, GMC : No warppoints Format settings, Matrix : Default (H.263) Muxing mode : Packed bitstream Codec ID : XVID Codec ID/Hint : XviD Duration : 40mn 56s Bit rate : 2 202 Kbps Width : 704 pixels Height : 528 pixels Display aspect ratio : 4:3 Frame rate : 23.976 (23976/1000) fps Color space : YUV Chroma subsampling : 4:2:0 Bit depth : 8 bits Scan type : Progressive Compression mode : Lossy Bits/(Pixel*Frame) : 0.247 Stream size : 645 MiB (92%) Writing library : XviD 1.1.0 Beta2 (UTC 2005-04-04) Audio ID : 1 Format : MPEG Audio Format version : Version 1 Format profile : Layer 3 Mode : Joint stereo Mode extension : MS Stereo Codec ID : 55 Codec ID/Hint : MP3 Duration : 40mn 56s Bit rate mode : Variable Bit rate : 175 Kbps Minimum bit rate : 128 Kbps Channel(s) : 2 channels Sampling rate : 48.0 KHz Compression mode : Lossy Stream size : 49.4 MiB (7%) Alignment : Aligned on interleaves Interleave, duration : 24 ms (0.58 video frame) Interleave, preload duration : 118 ms Writing library : LAME3.96r Encoding settings : -m j -V 2 -q 3 -lowpass 19 --vbr-old -b 128 General Complete name : Tenjou_Tenge._The_Past_Chapter_-_Part_2_-_OVA_-_[A-S_&_SHS](c5408962).avi Format : AVI Format/Info : Audio Video Interleave File size : 696 MiB Duration : 50mn 59s Overall bit rate mode : Variable Overall bit rate : 1 909 Kbps Writing application : VirtualDubMod 1.5.10.1 (build 2439/release) Writing library : VirtualDubMod build 2439/release Video ID : 0 Format : MPEG-4 Visual Format profile : Simple@L3 Format settings, BVOP : 2 Format settings, QPel : No Format settings, GMC : No warppoints Format settings, Matrix : Default (H.263) Muxing mode : Packed bitstream Codec ID : XVID Codec ID/Hint : XviD Duration : 50mn 59s Bit rate : 1 716 Kbps Width : 704 pixels Height : 528 pixels Display aspect ratio : 4:3 Frame rate : 23.976 (23976/1000) fps Color space : YUV Chroma subsampling : 4:2:0 Bit depth : 8 bits Scan type : Progressive Compression mode : Lossy Bits/(Pixel*Frame) : 0.193 Stream size : 626 MiB (90%) Writing library : XviD 1.1.0 Beta2 (UTC 2005-04-04) Audio ID : 1 Format : MPEG Audio Format version : Version 1 Format profile : Layer 3 Mode : Joint stereo Mode extension : MS Stereo Codec ID : 55 Codec ID/Hint : MP3 Duration : 50mn 59s Bit rate mode : Variable Bit rate : 175 Kbps Channel(s) : 2 channels Sampling rate : 48.0 KHz Compression mode : Lossy Stream size : 65.7 MiB (9%) Alignment : Aligned on interleaves Interleave, duration : 24 ms (0.58 video frame) Interleave, preload duration : 526 ms *downloaded from emule network. as I cant seem to find any existing Eng_Sub of this. credits to the ripper and subbers dont forget to seed...

File list

Do you have the caption separate?

namzer0 (uploader)

User
I dont have... the group had it hardsubbed
according to here there should be better sauces than this. salamander is rus SSA, but if someone just edit out with english after comparing to the crappy sauce, it could be converted to English subs. unfortunately they did not include english audio, may have to rip that from a diff sauce assuming it will sync. https://anidb.net/perl-bin/animedb.pl?show=anime&aid=3121 https://rutracker.org/forum/viewtopic.php?t=4590879