Aggretsuko.S01.JAPANESE.1080p.NF.WEB-DL.DD5.1.DUAL.x264-STRiFE

Category:
Date:
2018-04-20 10:52 UTC
Submitter:
Seeders:
0
Information:
No information.
Leechers:
0
File size:
6.4 GiB
Completed:
436
Info hash:
a07a2dea724a81987bcaadaeb0c7875d5396fdae
MediaInfo Video ID : 1 Format : AVC Format/Info : Advanced Video Codec Format profile : Main@L4 Format settings : CABAC / 3 Ref Frames Format settings, CABAC : Yes Format settings, ReFrames : 3 frames Codec ID : V_MPEG4/ISO/AVC Duration : 18 min 26 s Bit rate mode : Variable Bit rate : 5 800 kb/s Maximum bit rate : 8 700 kb/s Width : 1 920 pixels Height : 1 080 pixels Display aspect ratio : 16:9 Frame rate mode : Constant Frame rate : 24.000 FPS Color space : YUV Chroma subsampling : 4:2:0 Bit depth : 8 bits Scan type : Progressive Bits/(Pixel*Frame) : 0.117 Stream size : 742 MiB (88%) Writing library : x264 core 148 r2715 7e75228 Encoding settings : cabac=1 / ref=3 / deblock=1:0:0 / analyse=0x1:0x111 / me=umh / subme=10 / psy=1 / psy_rd=1.00:0.00 / mixed_ref=1 / me_range=24 / chroma_me=1 / trellis=2 / 8x8dct=0 / cqm=0 / deadzone=21,11 / fast_pskip=1 / chroma_qp_offset=-2 / threads=8 / lookahead_threads=1 / sliced_threads=0 / nr=0 / decimate=1 / interlaced=0 / bluray_compat=0 / stitchable=1 / constrained_intra=0 / bframes=2 / b_pyramid=0 / b_adapt=2 / b_bias=0 / direct=3 / weightb=1 / open_gop=0 / weightp=2 / keyint=48 / keyint_min=25 / scenecut=0 / intra_refresh=0 / rc_lookahead=48 / rc=2pass / mbtree=1 / bitrate=5800 / ratetol=1.0 / qcomp=0.50 / qpmin=6 / qpmax=51 / qpstep=4 / cplxblur=20.0 / qblur=0.5 / vbv_maxrate=8700 / vbv_bufsize=11600 / nal_hrd=vbr / filler=0 / ip_ratio=1.40 / aq=1:1.00 Default : Yes Forced : No Audio #1 ID : 2 Format : AC-3 Format/Info : Audio Coding 3 Codec ID : A_AC3 Duration : 18 min 26 s Bit rate mode : Constant Bit rate : 384 kb/s Channel(s) : 6 channels Channel positions : Front: L C R, Side: L R, LFE Sampling rate : 48.0 kHz Frame rate : 31.250 FPS (1536 SPF) Bit depth : 16 bits Compression mode : Lossy Stream size : 50.7 MiB (6%) Language : Japanese Service kind : Complete Main Default : Yes Forced : No Audio #2 ID : 3 Format : AC-3 Format/Info : Audio Coding 3 Codec ID : A_AC3 Duration : 18 min 26 s Bit rate mode : Constant Bit rate : 384 kb/s Channel(s) : 6 channels Channel positions : Front: L C R, Side: L R, LFE Sampling rate : 48.0 kHz Frame rate : 31.250 FPS (1536 SPF) Bit depth : 16 bits Compression mode : Lossy Stream size : 50.7 MiB (6%) Language : English Service kind : Complete Main Default : No Forced : No Text #1 ID : 4 Format : UTF-8 Codec ID : S_TEXT/UTF8 Codec ID/Info : UTF-8 Plain Text Duration : 17 min 49 s Bit rate : 46 b/s Count of elements : 203 Stream size : 6.09 KiB (0%) Title : 1 Language : English Default : Yes Forced : No Text #2 ID : 5 Format : UTF-8 Codec ID : S_TEXT/UTF8 Codec ID/Info : UTF-8 Plain Text Duration : 17 min 53 s Bit rate : 42 b/s Count of elements : 171 Stream size : 5.53 KiB (0%) Language : Dutch Default : No Forced : No Text #3 ID : 6 Format : UTF-8 Codec ID : S_TEXT/UTF8 Codec ID/Info : UTF-8 Plain Text Duration : 17 min 53 s Bit rate : 50 b/s Count of elements : 204 Stream size : 6.60 KiB (0%) Title : European Language : Spanish Default : No Forced : No Text #4 ID : 7 Format : UTF-8 Codec ID : S_TEXT/UTF8 Codec ID/Info : UTF-8 Plain Text Duration : 17 min 53 s Bit rate : 53 b/s Count of elements : 202 Stream size : 7.04 KiB (0%) Language : French Default : No Forced : No Text #5 ID : 8 Format : UTF-8 Codec ID : S_TEXT/UTF8 Codec ID/Info : UTF-8 Plain Text Duration : 17 min 29 s Bit rate : 51 b/s Count of elements : 234 Stream size : 6.63 KiB (0%) Language : German Default : No Forced : No

File list

  • Aggretsuko.S01.1080p.WEB.x264-STRiFE[rartv]
    • RARBG.txt (31 Bytes)
    • aggretsuko.s01e01.1080p.web.x264-strife.mkv (644.5 MiB)
    • aggretsuko.s01e02.1080p.web.x264-strife.mkv (644.7 MiB)
    • aggretsuko.s01e03.1080p.web.x264-strife.mkv (615.0 MiB)
    • aggretsuko.s01e04.1080p.web.x264-strife.mkv (612.9 MiB)
    • aggretsuko.s01e05.1080p.web.x264-strife.mkv (696.2 MiB)
    • aggretsuko.s01e06.1080p.web.x264-strife.mkv (614.7 MiB)
    • aggretsuko.s01e07.1080p.web.x264-strife.mkv (669.9 MiB)
    • aggretsuko.s01e08.1080p.web.x264-strife.mkv (640.2 MiB)
    • aggretsuko.s01e09.1080p.web.x264-strife.mkv (588.7 MiB)
    • aggretsuko.s01e10.1080p.web.x264-strife.mkv (843.6 MiB)
WEB = WEB-DL and not webrip...
thank you. surprisingly quite enjoyable.
These are dual audio aren't they?