[Watanabe] Love Live! PV µ's - Wonderful Rush 1080p 60fps HEVC 10Bit FLAC

Category:
Date:
2018-04-08 09:18 UTC
Submitter:
Seeders:
2
File size:
295.3 MiB
Completed:
247
Info hash:
4c945affb67f2707b2708bf52df7e62971f94624
Enjoy your PV :V This File Won't Run in Low Spek Direct Download [Here](https://watanabeyoue1.wixsite.com/zona-idol/zonaidol/%CE%BC-s-wonderful-rush) ![](https://vignette.wikia.nocookie.net/love-live/images/a/a5/Wonderful_Rush_-_Cover.jpg/revision/latest/scale-to-width-down/1000?cb=20180302143449) Video ID : 1 Format : HEVC Format/Info : High Efficiency Video Coding Format profile : Main 10@L5@High Codec ID : V_MPEGH/ISO/HEVC Duration : 6 min 22 s Bit rate : 4 761 kb/s Width : 1 920 pixels Height : 1 080 pixels Display aspect ratio : 16:9 Frame rate mode : Constant Frame rate : 59.940 (60000/1001) FPS Color space : YUV Chroma subsampling : 4:2:0 Bit depth : 10 bits Bits/(Pixel*Frame) : 0.038 Stream size : 217 MiB (73%) Writing library : x265 2.5+14-2718cb5dd67f:[Windows][GCC 7.1.0][64 bit] 10bitLanguage : Japanese Default : Yes Forced : No Audio ID : 2 Format : FLAC Format/Info : Free Lossless Audio Codec Codec ID : A_FLAC Duration : 6 min 22 s Bit rate mode : Variable Bit rate : 1 714 kb/s Channel(s) : 2 channels Channel positions : Front: L R Sampling rate : 48.0 kHz Frame rate : 11.721 FPS (4095 SPF) Bit depth : 24 bits Stream size : 78.1 MiB (26%) Writing library : libFLAC 1.2.1 (UTC 2007-09-17) Language : Japanese Default : No Forced : No

File list

  • µ's - Wonderful Rush 1080p60fps 10Bit FLAC.mkv (295.3 MiB)