[Watanabe] Love Live! PV µ's - Natsuiro Egao de 1,2, Jump! 1080p 60fps HEVC 10bit FLAC

Category:
Date:
2018-04-06 14:24 UTC
Submitter:
Seeders:
0
File size:
330.6 MiB
Completed:
178
Info hash:
009506aee831413956db618285210f9511c6b690
Direct Download [Here!](https://watanabeyoue1.wixsite.com/zona-idol/zonaidol/%C2%B5-s-natsuiro-egao-de-1-2-jump-1080p60fps-10bit-flac) Video ID : 1 Format : HEVC Format/Info : High Efficiency Video Coding Format profile : Main 10@L5@High Codec ID : V_MPEGH/ISO/HEVC Duration : 5 min 13 s Bit rate : 7 165 kb/s Width : 1 920 pixels Height : 1 080 pixels Display aspect ratio : 16:9 Frame rate mode : Constant Frame rate : 59.940 (60000/1001) FPS Color space : YUV Chroma subsampling : 4:2:0 Bit depth : 10 bits Bits/(Pixel*Frame) : 0.058 Stream size : 268 MiB (81%) Language : Japanese Default : Yes Forced : No Audio ID : 2 Format : FLAC Format/Info : Free Lossless Audio Codec Codec ID : A_FLAC Duration : 5 min 13 s Bit rate mode : Variable Bit rate : 1 668 kb/s Channel(s) : 2 channels Channel positions : Front: L R Sampling rate : 48.0 kHz Frame rate : 11.720 FPS (4096 SPF) Bit depth : 24 bits Stream size : 62.4 MiB (19%) Writing library : libFLAC 1.2.1 (UTC 2007-09-17) Language : Japanese Default : No Forced : No

File list

  • µ's - Natsuiro Egao de 1,2, Jump! 1080p60fps 10bit FLAC.mkv (330.6 MiB)