[Watanabe] Love Live! PV µ's - Mogyutto 'love' de Sekkinchuu! 1080p 60fps HEVC 10bit FLAC

Category:
Date:
2018-04-06 13:18 UTC
Submitter:
Seeders:
0
File size:
302.3 MiB
Completed:
144
Info hash:
7eabbe3ca85e62390de6beb9dd928b94612d74dd
To Direct Download [Click Here](https://watanabeyoue1.wixsite.com/zona-idol/zonaidol/%C2%B5-s-mogyutto-love-de-sekkinchuu-1080p60fps-10bit-flac) ! Next PV µ's - Natsuiro Egao de 1,2, Jump! In Same Setting too Video ID : 1 Format : HEVC Format/Info : High Efficiency Video Coding Format profile : Main 10@L5@High Codec ID : V_MPEGH/ISO/HEVC Duration : 6 min 12 s Bit rate : 4 942 kb/s Width : 1 920 pixels Height : 1 080 pixels Display aspect ratio : 16:9 Frame rate mode : Constant Frame rate : 59.940 (60000/1001) FPS Color space : YUV Chroma subsampling : 4:2:0 Bit depth : 10 bits Bits/(Pixel*Frame) : 0.040 Stream size : 219 MiB (73%) Writing library : x265 2.5+14-2718cb5dd67f:[Windows][GCC 7.1.0][64 bit] 10bit Language : Japanese Default : Yes Forced : No Audio ID : 2 Format : FLAC Format/Info : Free Lossless Audio Codec Codec ID : A_FLAC Duration : 6 min 12 s Bit rate mode : Variable Bit rate : 1 768 kb/s Channel(s) : 2 channels Channel positions : Front: L R Sampling rate : 48.0 kHz Frame rate : 11.719 FPS (4096 SPF) Bit depth : 24 bits Stream size : 78.5 MiB (26%) Writing library : libFLAC 1.2.1 (UTC 2007-09-17) Language : Japanese Default : No Forced : No

File list

  • µ's - Mogyutto 'love' de Sekkinchuu! 1080p60fps 10bit FLAC.mkv (302.3 MiB)