[Watanabe] Love Live! PV µ's Bokura no LIVE Kimi to no LIFE 1080p 60fps Flac

Category:
Date:
2018-04-06 08:15 UTC
Submitter:
Seeders:
0
File size:
382.0 MiB
Completed:
172
Info hash:
feb2e9daaf3e6dfe6fd292c51b9ad9b052c7dfc4
Haru Da Nee :V To Direct Download Go to website Click [here](https://watanabeyoue1.wixsite.com/zona-idol/zonaidol/%C2%B5-s-bokura-no-live-kimi-to-no-life-1080p60fps-flac)! Video ID : 1 Format : AVC Format/Info : Advanced Video Codec Format profile : High@L5 Format settings, CABAC : Yes Format settings, RefFrames : 3 frames Codec ID : V_MPEG4/ISO/AVC Duration : 5 min 11 s Bit rate : 8 837 kb/s Width : 1 920 pixels Height : 1 080 pixels Display aspect ratio : 2.35:1 Original display aspect ratio : 16:9 Frame rate mode : Constant Frame rate : 60.000 FPS Color space : YUV Chroma subsampling : 4:2:0 Bit depth : 8 bits Scan type : Progressive Bits/(Pixel*Frame) : 0.071 Stream size : 328 MiB (86%) Language : Japanese Default : Yes Forced : Yes Color range : Limited Matrix coefficients : BT.709 Audio ID : 2 Format : FLAC Format/Info : Free Lossless Audio Codec Codec ID : A_FLAC Duration : 5 min 11 s Bit rate mode : Variable Bit rate : 1 439 kb/s Channel(s) : 2 channels Channel positions : Front: L R Sampling rate : 48.0 kHz Frame rate : 11.722 FPS (4095 SPF) Bit depth : 24 bits Stream size : 53.5 MiB (14%) Writing library : libFLAC 1.2.1 (UTC 2007-09-17) Language : Japanese Default : No Forced : No

File list

  • µ's Bokura no LIVE Kimi to no LIFE 1080p60fps Flac.mkv (382.0 MiB)