Amagi Brilliant Park (H264 1080p; AAC 2.0; English Dub)

Category:
Date:
2018-04-02 23:30 UTC
Submitter:
Seeders:
0
Information:
Leechers:
1
File size:
8.0 GiB
Completed:
157
Info hash:
df5297586d31fa9b50e6aeea42a21b70525041fa
Amagi Brilliant Park 01.mkv MediaInfo General Format: Matroska Format version: Version 4 / Version 2 File size: 584 MiB Duration: 25 min 49 s Overall bit rate mode: Variable Overall bit rate: 3163 kb/s Movie name: No Visitors! Encoded date: UTC 2018-04-02 21:45:02 Writing application: mkvmerge v22.0.0 ('At The End Of The World') 64-bit Writing library: libebml v1.3.5 + libmatroska v1.4.8 Video ID: 1 Format: AVC Format/Info: Advanced Video Codec Format profile: High@L5.1 Format settings: CABAC / 16 Ref Frames Format settings, CABAC: Yes Format settings, RefFrames: 16 frames Format settings, GOP: M=3, N=24 Codec ID: V_MPEG4/ISO/AVC Duration: 25 min 49 s Bit rate mode: Variable Bit rate: 3039 kb/s Maximum bit rate: 4650 kb/s Width: 1920 pixels Height: 1080 pixels Display aspect ratio: 16:9 Frame rate mode: Constant Frame rate: 23.976 (24000/1001) FPS Color space: YUV Chroma subsampling: 4:2:0 Bit depth: 8 bits Scan type: Progressive Bits/(Pixel*Frame): 0.061 Stream size: 561 MiB (96%) Title: H.264 1080p Language: English Default: Yes Forced: No Color range: Limited Color primaries: BT.709 Transfer characteristics: BT.709 Matrix coefficients: BT.709 Audio ID: 2 Format: AAC Format/Info: Advanced Audio Codec Format profile: LC Codec ID: A_AAC-2 Duration: 25 min 18 s Bit rate: 123 kb/s Channel(s): 2 channels Channel positions: Front: L R Sampling rate: 48.0 kHz Frame rate: 46.875 FPS (1024 SPF) Compression mode: Lossy Stream size: 22.2 MiB (4%) Title: AAC 2.0 Language: English Default: Yes Forced: No Text ID: 3 Format: PGS Muxing mode: zlib Codec ID: S_HDMV/PGS Codec ID/Info: Picture based subtitle format used on BDs/HD-DVDs Duration: 23 min 15 s Bit rate: 6829 b/s Count of elements: 94 Stream size: 1.14 MiB (0%) Title: Signs & Songs Language: English Default: Yes Forced: Yes Menu 00:00:00.000: en:Chapter 1 00:00:48.048: en:Chapter 2 00:02:17.971: en:Chapter 3 00:08:50.864: en:Chapter 4 00:22:05.366: en:Chapter 5 00:22:11.038: en:Chapter 6 00:23:40.878: en:Chapter 7 00:24:12.743: en:Chapter 8

File list

  • Amagi Brilliant Park
    • Amagi Brilliant Park 01.mkv (584.3 MiB)
    • Amagi Brilliant Park 02.mkv (584.0 MiB)
    • Amagi Brilliant Park 03.mkv (586.3 MiB)
    • Amagi Brilliant Park 04.mkv (580.8 MiB)
    • Amagi Brilliant Park 05.mkv (584.3 MiB)
    • Amagi Brilliant Park 06.mkv (581.8 MiB)
    • Amagi Brilliant Park 07.mkv (586.5 MiB)
    • Amagi Brilliant Park 08.mkv (581.5 MiB)
    • Amagi Brilliant Park 09.mkv (586.3 MiB)
    • Amagi Brilliant Park 10.mkv (585.4 MiB)
    • Amagi Brilliant Park 11.mkv (584.7 MiB)
    • Amagi Brilliant Park 12.mkv (584.0 MiB)
    • Amagi Brilliant Park 13.mkv (590.1 MiB)
    • Amagi Brilliant Park S1.mkv (572.0 MiB)