Fate/Kaleid Liner Prisma☆Illya + 2wei! + 2wei Herz! (H.264 1080p; AAC 2.0; English Dub)

Category:
Date:
2018-03-29 00:32 UTC
Submitter:
Seeders:
1
Information:
Leechers:
0
File size:
17.3 GiB
Completed:
243
Info hash:
653fdc625042176d72c6cba9ab730b9ba5a35a3c
Fate/Kaleid Liner Prisma☆Illya Episode 01 MediaInfo General Format: Matroska Format version: Version 4 / Version 2 File size: 615 MiB Duration: 28 min 13 s Overall bit rate mode: Variable Overall bit rate: 3047 kb/s Movie name: Birth! A Magical Girl! Encoded date: UTC 2018-03-19 14:57:21 Writing application: mkvmerge v21.0.0 ('Tardigrades Will Inherit The Earth') 64-bit Writing library: libebml v1.3.5 + libmatroska v1.4.8 Video Format: AVC Format/Info: Advanced Video Codec Format profile: High@L5.1 Format settings: CABAC / 16 Ref Frames Format settings, CABAC: Yes Format settings, RefFrames: 16 frames Format settings, GOP: M=3, N=24 Codec ID: V_MPEG4/ISO/AVC Duration: 28 min 13 s Bit rate mode: Variable Bit rate: 2919 kb/s Maximum bit rate: 4500 kb/s Width: 1920 pixels Height: 1080 pixels Display aspect ratio: 16:9 Frame rate mode: Constant Frame rate: 23.976 (24000/1001) FPS Color space: YUV Chroma subsampling: 4:2:0 Bit depth: 8 bits Scan type: Progressive Bits/(Pixel*Frame): 0.059 Stream size: 589 MiB (96%) Title: H.264 1080p Language: English Default: Yes Forced: No Color range: Limited Color primaries: BT.709 Transfer characteristics: BT.709 Matrix coefficients: BT.709 Audio ID: 2 Format: AAC Format/Info: Advanced Audio Codec Format profile: LC Codec ID: A_AAC-2 Duration: 27 min 13 s Bit rate: 128 kb/s Channel(s): 2 channels Channel positions: Front: L R Sampling rate: 48.0 kHz Frame rate: 46.875 FPS (1024 SPF) Compression mode: Lossy Delay relative to video: -83 ms Stream size: 25.0 MiB (4%) Title: AAC 2.0 Language: English Default: Yes Forced: No Text ID: 3 Format: PGS Muxing mode: zlib Codec ID: S_HDMV/PGS Codec ID/Info: Picture based subtitle format used on BDs/HD-DVDs Duration: 26 min 28 s Bit rate: 5102 b/s Count of elements: 69 Stream size: 990 KiB (0%) Title: Signs & Songs Language: English Default: Yes Forced: No Menu 00:00:00.083: en:Chapter 1 00:05:15.064: en:Chapter 2 00:06:45.029: en:Chapter 3 00:15:47.029: en:Chapter 4 00:25:31.029: en:Chapter 5 00:27:01.036: en:Chapter 6 00:27:13.924: en:Chapter 7

File list

  • Fate/Kaleid Liner Prisma☆Illya
    • 1 Fate/Kaleid Liner Prisma☆Illya
      • Fate/Kaleid Liner Prisma☆Illya 01.mkv (615.2 MiB)
      • Fate/Kaleid Liner Prisma☆Illya 02.mkv (536.9 MiB)
      • Fate/Kaleid Liner Prisma☆Illya 03.mkv (538.7 MiB)
      • Fate/Kaleid Liner Prisma☆Illya 04.mkv (539.2 MiB)
      • Fate/Kaleid Liner Prisma☆Illya 05.mkv (539.8 MiB)
      • Fate/Kaleid Liner Prisma☆Illya 06.mkv (541.7 MiB)
      • Fate/Kaleid Liner Prisma☆Illya 07.mkv (536.4 MiB)
      • Fate/Kaleid Liner Prisma☆Illya 08.mkv (535.1 MiB)
      • Fate/Kaleid Liner Prisma☆Illya 09.mkv (535.5 MiB)
      • Fate/Kaleid Liner Prisma☆Illya 10.mkv (534.0 MiB)
      • Fate/Kaleid Liner Prisma☆Illya OAD.mkv (564.0 MiB)
    • 2 Fate/Kaleid Liner Prisma☆Illya 2wei!
      • Fate/Kaleid Liner Prisma☆Illya 2wei! 01.mkv (541.9 MiB)
      • Fate/Kaleid Liner Prisma☆Illya 2wei! 02.mkv (543.1 MiB)
      • Fate/Kaleid Liner Prisma☆Illya 2wei! 03.mkv (537.3 MiB)
      • Fate/Kaleid Liner Prisma☆Illya 2wei! 04.mkv (535.7 MiB)
      • Fate/Kaleid Liner Prisma☆Illya 2wei! 05.mkv (540.8 MiB)
      • Fate/Kaleid Liner Prisma☆Illya 2wei! 06.mkv (542.2 MiB)
      • Fate/Kaleid Liner Prisma☆Illya 2wei! 07.mkv (535.7 MiB)
      • Fate/Kaleid Liner Prisma☆Illya 2wei! 08.mkv (539.6 MiB)
      • Fate/Kaleid Liner Prisma☆Illya 2wei! 09.mkv (540.8 MiB)
      • Fate/Kaleid Liner Prisma☆Illya 2wei! 10.mkv (514.4 MiB)
      • Fate/Kaleid Liner Prisma☆Illya 2wei! S 1.mkv (122.4 MiB)
      • Fate/Kaleid Liner Prisma☆Illya 2wei! S 3.mkv (144.8 MiB)
      • Fate/Kaleid Liner Prisma☆Illya 2wei! S 5.mkv (159.1 MiB)
    • 3 Fate/Kaleid Liner Prisma☆Illya 2wei Herz!
      • Fate/Kaleid Liner Prisma☆Illya 2wei Herz! 01.mkv (518.2 MiB)
      • Fate/Kaleid Liner Prisma☆Illya 2wei Herz! 02.mkv (522.6 MiB)
      • Fate/Kaleid Liner Prisma☆Illya 2wei Herz! 03.mkv (520.0 MiB)
      • Fate/Kaleid Liner Prisma☆Illya 2wei Herz! 04.mkv (519.7 MiB)
      • Fate/Kaleid Liner Prisma☆Illya 2wei Herz! 05.mkv (519.9 MiB)
      • Fate/Kaleid Liner Prisma☆Illya 2wei Herz! 06.mkv (517.0 MiB)
      • Fate/Kaleid Liner Prisma☆Illya 2wei Herz! 07.mkv (522.2 MiB)
      • Fate/Kaleid Liner Prisma☆Illya 2wei Herz! 08.mkv (519.4 MiB)
      • Fate/Kaleid Liner Prisma☆Illya 2wei Herz! 09.mkv (522.9 MiB)
      • Fate/Kaleid Liner Prisma☆Illya 2wei Herz! 10.mkv (520.2 MiB)
      • Fate/Kaleid Liner Prisma☆Illya 2wei Herz! S 1.mkv (150.5 MiB)
      • Fate/Kaleid Liner Prisma☆Illya 2wei Herz! S 2.mkv (98.6 MiB)
      • Fate/Kaleid Liner Prisma☆Illya 2wei Herz! S 3.mkv (138.4 MiB)
      • Fate/Kaleid Liner Prisma☆Illya 2wei Herz! S 4.mkv (171.1 MiB)
      • Fate/Kaleid Liner Prisma☆Illya 2wei Herz! S 5.mkv (143.2 MiB)
for some odd reason its stuck at 99.1% can you please fix the torrent file it will be a huge help
Anybody feel like seeding?