Grimgar Ashes and Illusions (H.264 1080p; AAC 2.0; English Dub)

Category:
Date:
2018-03-27 23:35 UTC
Submitter:
Seeders:
0
Information:
Leechers:
2
File size:
6.6 GiB
Completed:
206
Info hash:
1fc40c8c6691ff60a2f4bb93549ef5be7bdd3f31
Grimgar Ashes and Illusions Episode 01 MediaInfo General Format: Matroska Format version: Version 4 / Version 2 File size: 545 MiB Duration: 23 min 42 s Overall bit rate mode: Variable Overall bit rate: 3216 kb/s Movie name: Whisper, Chant, Prayer, Awaken Encoded date: UTC 2018-03-27 20:14:42 Writing application: mkvmerge v21.0.0 ('Tardigrades Will Inherit The Earth') 64-bit Writing library: libebml v1.3.5 + libmatroska v1.4.8 Video ID: 1 Format: AVC Format/Info: Advanced Video Codec Format profile: High@L5.1 Format settings: CABAC / 16 Ref Frames Format settings, CABAC: Yes Format settings, RefFrames: 16 frames Format settings, GOP: M=3, N=24 Codec ID: V_MPEG4/ISO/AVC Duration: 23 min 41 s Bit rate mode: Variable Bit rate: 3085 kb/s Maximum bit rate: 4650 kb/s Width: 1920 pixels Height: 1080 pixels Display aspect ratio: 16:9 Frame rate mode: Constant Frame rate: 23.976 (24000/1001) FPS Color space: YUV Chroma subsampling: 4:2:0 Bit depth: 8 bits Scan type: Progressive Bits/(Pixel*Frame): 0.062 Stream size: 523 MiB (96%) Title: H.264 1080p Language: English Default: Yes Forced: No Color range: Limited Color primaries: BT.709 Transfer characteristics: BT.709 Matrix coefficients: BT.709 Audio ID: 2 Format: AAC Format/Info: Advanced Audio Codec Format profile: LC Codec ID: A_AAC-2 Duration: 23 min 41 s Bit rate: 128 kb/s Channel(s): 2 channels Channel positions: Front: L R Sampling rate: 48.0 kHz Frame rate: 46.875 FPS (1024 SPF) Compression mode: Lossy Delay relative to video: 73 ms Stream size: 21.8 MiB (4%) Title: AAC 2.0 Language: English Default: Yes Forced: No Menu 00:00:00.000: en:Prologue 00:02:13.175: en:Part A 00:11:19.053: en:Part B 00:21:56.065: en:Ending 00:23:25.988: en:Preview

File list

  • Grimgar Ashes and Illusions
    • Grimgar Ashes and Illusions 01.mkv (545.2 MiB)
    • Grimgar Ashes and Illusions 02.0.mkv (547.5 MiB)
    • Grimgar Ashes and Illusions 02.5.mkv (263.4 MiB)
    • Grimgar Ashes and Illusions 03.mkv (543.2 MiB)
    • Grimgar Ashes and Illusions 04.mkv (545.3 MiB)
    • Grimgar Ashes and Illusions 05.mkv (544.8 MiB)
    • Grimgar Ashes and Illusions 06.mkv (542.3 MiB)
    • Grimgar Ashes and Illusions 07.mkv (542.0 MiB)
    • Grimgar Ashes and Illusions 08.mkv (544.8 MiB)
    • Grimgar Ashes and Illusions 09.mkv (544.7 MiB)
    • Grimgar Ashes and Illusions 10.mkv (544.7 MiB)
    • Grimgar Ashes and Illusions 11.mkv (544.8 MiB)
    • Grimgar Ashes and Illusions 12.mkv (537.7 MiB)