[Eri Watanabe] Love Live! SunShine!! PV Aqours Kimi No Kokoro wa Kagayiteru kai? 1080p60Fps Optical Flow AAC

Category:
Date:
2018-03-19 00:30 UTC
Submitter:
Seeders:
1
File size:
363.0 MiB
Completed:
164
Info hash:
613d48ecbbf14dfada6535e76a3d5266476f83ef
Next Video PV [μ's Wonderfull Rush] #KEEPUPLOADING Video ID : 1 Format : AVC Format/Info : Advanced Video Codec Format profile : Main@L4.2 Format settings, CABAC : No Format settings, ReFrames : 2 frames Codec ID : avc1 Codec ID/Info : Advanced Video Coding Duration : 7mn 0s Bit rate mode : Variable Bit rate : 7 047 Kbps Width : 1 920 pixels Height : 1 080 pixels Display aspect ratio : 16:9 Frame rate mode : Constant Frame rate : 59.940 fps Color space : YUV Chroma subsampling : 4:2:0 Bit depth : 8 bits Scan type : Progressive Bits/(Pixel*Frame) : 0.057 Stream size : 353 MiB (97%) Audio ID : 2 Format : AAC Format/Info : Advanced Audio Codec Format version : Version 4 Format profile : LC Format settings, SBR : No Codec ID : 40 Duration : 7mn 0s Bit rate mode : Constant Bit rate : 192 Kbps Channel(s) : 2 channels Channel positions : Front: L R Sampling rate : 48.0 KHz Stream size : 9.74 MiB (3%)

File list

  • Aqours PV Kimi no Kokoro Kagaiteru kai.mp4 (363.0 MiB)
Hori Shito!!! I have no idea you can enjoy an Animated Music Video this way What about Koi ni Naritai Aquarium?

You_Watanabe (uploader)

User
?? What do You Mean ?
It's just.... So goddamn guuuuuud and really smooth.
What's that optical flow? xd
Valz_niK just search for 60fps videos, that's why they are smoother

You_Watanabe (uploader)

User
nyahaha I just .... Try New Way Harunoki :V Modify the script First I got Very Big Size In HPT PV and this the second script