[UM] Seitokai Yakuindomo Movie [DVD][H264][576p][10bit][AAC]

Category:
Date:
2018-03-18 05:49 UTC
Submitter:
Seeders:
4
Information:
No information.
Leechers:
0
File size:
556.4 MiB
Completed:
2054
Info hash:
10cc054875b26f049c0993621da135ce61a4f151
#### DDL => [Anime Tosho](https://animetosho.org/view/um-seitokai-yakuindomo-movie-dvd-hevc-576p-10bit-aac.n1016665) ![alt text](https://i.imgur.com/8oOKyks.png) #### MediaInfo : ``` General Unique ID : 257742361488956441362765078005525538784 (0xC1E75F899152E119AAC2972B69D867E0) Complete name : [UM] Seitokai Yakuindomo Movie [DVD][H264][576p][10bit][AAC].mkv Format : Matroska Format version : Version 4 / Version 2 File size : 556 MiB Duration : 1 h 0 min Overall bit rate : 1 277 kb/s Movie name : [UchiMaki] Seitokai Yakuindomo Movie [DVD] Writing application : mkvmerge v21.0.0 ('Tardigrades Will Inherit The Earth') 64-bit Writing library : libebml v1.3.5 + libmatroska v1.4.8 Attachments : DK Nouveau Crayon.otf / EraserRegular.ttf / foolishpeopleDEMO.otf / HANDSEAN.TTF / KGMissKindergarten.ttf / KGTenThousandReasons.ttf / Lauren C. Brown.TTF / LEVIBRUSH.TTF / nicomoji-plus_1.11.ttf / NOOTYPE - RADIKAL BLACK.OTF / RESURREC.TTF / RuzickaTypeK.ttf / segoeprb.ttf / segoesc.ttf / Sketchit Means Sketchit.ttf / Super Retro M54.ttf / SWEETASCANDY.TTF / THERIFV2.TTF / upcll.ttf / VAGRounded BT.ttf / YIKES!.TTF / AkzentRoundedMedium-Regular.ttf / arial.ttf / arialbd.ttf / arialbi.ttf / ARIALN.TTF / ariblk.ttf / Arnold 2.1.TTF / BLAMBOTPROLITE.TTF / Boopee.TTF / Brushed.TTF / Candara.ttf / Candarab.ttf / Candarai.ttf / Candaraz.ttf / College Halo.ttf / Colored Crayons.ttf / Complete in Him.TTF / DJB POPPYSEED.TTF Video ID : 1 Format : AVC Format/Info : Advanced Video Codec Format profile : High 10@L4.1 Format settings, CABAC : Yes Format settings, RefFrames : 4 frames Codec ID : V_MPEG4/ISO/AVC Duration : 1 h 0 min Bit rate : 1 021 kb/s Width : 1 024 pixels Height : 576 pixels Display aspect ratio : 16:9 Frame rate mode : Constant Frame rate : 23.976 (24000/1001) FPS Color space : YUV Chroma subsampling : 4:2:0 Bit depth : 10 bits Scan type : Progressive Bits/(Pixel*Frame) : 0.072 Stream size : 445 MiB (80%) Title : Gekijouban Seitokai Yakuindomo (DVD 1024x576 x264 10bit AAC) Writing library : x264 core 155 r2893 b00bcaf Encoding settings : cabac=1 / ref=2 / deblock=1:0:0 / analyse=0x3:0x113 / me=hex / subme=6 / psy=1 / psy_rd=1.00:0.00 / mixed_ref=1 / me_range=16 / chroma_me=1 / trellis=1 / 8x8dct=1 / cqm=0 / deadzone=21,11 / fast_pskip=1 / chroma_qp_offset=-2 / threads=3 / lookahead_threads=1 / sliced_threads=0 / nr=0 / decimate=1 / interlaced=0 / bluray_compat=0 / constrained_intra=0 / bframes=3 / b_pyramid=2 / b_adapt=1 / b_bias=0 / direct=1 / weightb=1 / open_gop=0 / weightp=1 / keyint=240 / keyint_min=24 / scenecut=40 / intra_refresh=0 / rc_lookahead=30 / rc=crf / mbtree=1 / crf=21.0 / qcomp=0.60 / qpmin=0 / qpmax=81 / qpstep=4 / vbv_maxrate=150000 / vbv_bufsize=187500 / crf_max=0.0 / nal_hrd=none / filler=0 / ip_ratio=1.40 / aq=1:1.00 Language : Japanese Default : Yes Forced : No Color range : Limited Color primaries : BT.601 NTSC Transfer characteristics : BT.709 Matrix coefficients : BT.601 Audio ID : 2 Format : AAC Format/Info : Advanced Audio Codec Format profile : LC Codec ID : A_AAC Duration : 1 h 0 min Bit rate : 213 kb/s Channel(s) : 2 channels Channel positions : Front: L R Sampling rate : 48.0 kHz Frame rate : 46.875 FPS (1024 SPF) Compression mode : Lossy Stream size : 92.6 MiB (17%) Language : Japanese Default : Yes Forced : No Text ID : 3 Format : ASS Codec ID : S_TEXT/ASS Codec ID/Info : Advanced Sub Station Alpha Duration : 59 min 17 s Bit rate : 369 b/s Count of elements : 1894 Compression mode : Lossless Stream size : 161 KiB (0%) Title : [EFA Subs] Seitokai Yakuindomo Movie Language : English Default : Yes Forced : No Menu 00:00:00.000 : en:: Chapter 1 00:00:42.000 : en:: Chapter 2 00:07:37.666 : en:: Chapter 3 00:09:26.166 : en:: Chapter 4 00:14:41.666 : en:: Chapter 5 00:19:24.966 : en:: Chapter 6 00:31:07.732 : en:: Chapter 7 00:44:40.732 : en:: Chapter 8 00:49:05.498 : en:: Chapter 9 00:55:37.731 : en:: Chapter 10 00:59:05.731 : en:: Chapter 11 ``` #### Please continue seeding Senpai, if possible 😊 ![alt text](https://i.imgur.com/xEpOxcE.png)

File list

  • [UM] Seitokai Yakuindomo Movie [DVD][H264][576p][10bit][AAC].mkv (556.4 MiB)
It is released on dvd only? Or the BD was not uploaded yet?
I think we'll have to wait for the BD Thanks anyway

UchiMakiDesu (uploader)

User
> It is released on dvd only? Or the BD was not uploaded yet? maybe bd hasn't been released yet Senpai. > I think we’ll have to wait for the BD yep, Senpai 😂
AFAIK the movie is only being released on DVD (manga bundle) for now.
Yeah, I was waiting for the BD, then realized I was wrong about a BD coming out this month. Instead, they chose to release the movie as a bonus DVD with the most recent manga. My original plan was to take these subs and put them with a high quality video with no chinese hardsubs and watermark. So when that fell through I ended up just kind of messing with the typesetting. That’s why I didn’t get out a version 2 days ago when the DVD came out. I wanted to have a DVD version that wouldn’t need a v2. :P I knew someone might get impatient though. I will continue making my typesetting look a little nicer, and then put out a version myself. Anyway, thanks Uchimaki. Some of your typesetting looks nicer than mine, so I might borrow it… the font that you use for the default looks nicer than Arial, I think. Also, I didn’t notice until I saw yours, but the ‘top’ subs in my version are using different font stylings than the default… yours being the same font looks a lot nicer. The school sign STILL causes lag... I'm going to do something about that... I thought it was a clever bit of typesetting, but it messes up the video a little...

UchiMakiDesu (uploader)

User
@ericfromabeno I just changed the default font to make it looks nicer than Arial. I'm happy if Senpai likes my typesetting, xD 😄 and also, Thank you very much for your hard work Senpai 👍😊
Thanks kouhai-kun.
Uchimaki, I don't know how to encode, actually, so I will release my (very slightly) updated version using the Ohys-Raw video as-is... feel free to work your Hi10 magic on it ^_^ ... It won't be too much better than the one that you have here, but I have been fiddling with some of the typesetting, and some things look/work better. It'll be up in a minute. I might re-do the "chinese hardsub" version as well, later, since it's 1080p quality and my newer subs look nicer. Maybe. 9_9 or I could wait 6 or 7 months and see if they put out a BD of the movie, which they probably will...

UchiMakiDesu (uploader)

User
😄Ok Senpai, I will wait for the final version and I also hope BD is released soon😆😂
Cant wait for the bd release as well as the rest missing ovas.. But this will do just fine for now! Thanks for your work.
for some reason there's no video nor sound Anyone know why?
> for some reason there’s no video nor sound make sure the video isn't corrupt. and use a media player that supports 10 bits.
It worked, Thank you so much.