[Eri Watanabe] Love Live! SunShine!! PV Aqours HPT 1080p 60fps Optical Flow FLAC

Category:
Date:
2018-03-18 04:44 UTC
Submitter:
Seeders:
0
File size:
795.4 MiB
Completed:
190
Info hash:
44715970336bbbb6e697f97530b6b9502e089781
Aqours Happy Party Train I try To Modify the Script And This what I got .... I Hope Some.... Opinion About This Video i'll be happy if keep This Torrent Alive :V #KEEPUPLOADING Format : Matroska Format version : Version 4 / Version 2 File size : 795 MiB Duration : 8 min 19 s Overall bit rate mode : Variable Overall bit rate : 13.4 Mb/s Movie name : Happy Party Train 60fps Optical Flow Encoded date : UTC 2018-03-17 23:08:54 Writing application : mkvmerge v15.0.0 ('Duel with the Devil') 64-bit Writing library : libebml v1.3.5 + libmatroska v1.4.5 Attachments : Cabin-BoldItalic-TTF.ttf / Cabin-Bold-TTF.ttf / Cabin-Italic-TTF.ttf / Cabin-MediumItalic-TTF.ttf / Cabin-Medium-TTF.ttf / Cabin-Regular-TTF.ttf / Cabin-SemiBoldItalic-TTF.ttf / Cabin-SemiBold-TTF.ttf / CandelaBold.ttf / magdacleanmono-regular.ttf Encode : SVP Flow Beta Video ID : 1 Format : AVC Format/Info : Advanced Video Codec Format profile : High@L5.1 Format settings, CABAC : Yes Format settings, RefFrames : 3 frames Codec ID : V_MPEG4/ISO/AVC Duration : 8 min 19 s Bit rate : 11.7 Mb/s Width : 1 920 pixels Height : 1 080 pixels Display aspect ratio : 16:9 Frame rate mode : Constant Frame rate : 59.940 (60000/1001) FPS Color space : YUV Chroma subsampling : 4:2:0 Bit depth : 8 bits Scan type : Progressive Bits/(Pixel*Frame) : 0.094 Stream size : 696 MiB (88%) Title : Aqours Happy Party Train Language : Japanese Default : Yes Forced : No Audio ID : 2 Format : FLAC Format/Info : Free Lossless Audio Codec Codec ID : A_FLAC Duration : 8 min 19 s Bit rate mode : Variable Bit rate : 1 652 kb/s Channel(s) : 2 channels Channel positions : Front: L R Sampling rate : 48.0 kHz Frame rate : 10.417 FPS (4608 SPF) Bit depth : 24 bits Stream size : 98.4 MiB (12%) Language : Japanese Default : No Forced : No

File list

  • HPT 60fps Optical Flow_new.mkv (795.4 MiB)
Hori Shito!!! I have no idea you can enjoy an Animated Music Video this way What about Koi ni Naritai Aquarium?

You_Watanabe (uploader)

User
You Mean I have to Remake Koi Ni Naritai Aquarium? with This Setting?
Nyah, I didn't notice the Koi ni Naritai AQUARIUM is the first before these two. My bad :3