[Eri Watanabe] Shelter. BD60fps 1080p HEVC FLAC

Category:
Date:
2018-03-16 06:11 UTC
Submitter:
Seeders:
2
File size:
123.6 MiB
Completed:
170
Info hash:
bbf32adfd092598929b68e8fb579ebc533681738
Note# [ i will Upload and try new setting in each Episode ] Next Project All PV μ's 60fps too Love Live! SunShine!! S2 BD 60fps No Game No Life Zero BD 60fps maybe can to 120fps too Fate Apocrypha BD 60fps and Any Request? #KEEPUPLOADING New Setting and New Scirpt x265 https://nyaa.si/view/959147 English Translation Video ID : 1 Format : HEVC Format/Info : High Efficiency Video Coding Format profile : Main 10@L4.1@Main Codec ID : V_MPEGH/ISO/HEVC Duration : 6 min 7 s Bit rate : 1 972 kb/s Width : 1 920 pixels Height : 1 080 pixels Display aspect ratio : 16:9 Frame rate mode : Constant Frame rate : 60.000 FPS Color space : YUV Chroma subsampling : 4:2:0 Bit depth : 10 bits Bits/(Pixel*Frame) : 0.016 Stream size : 86.4 MiB (70%) Writing library : x265 2.5+14-2718cb5dd67f:[Windows][GCC 7.1.0][64 bit] 10bit Default : Yes Forced : No Audio ID : 3 Format : FLAC Format/Info : Free Lossless Audio Codec Codec ID : A_FLAC Duration : 6 min 7 s Bit rate mode : Variable Bit rate : 844 kb/s Channel(s) : 2 channels Channel positions : Front: L R Sampling rate : 48.0 kHz Frame rate : 11.721 FPS (4095 SPF) Bit depth : 24 bits Stream size : 37.0 MiB (30%) Writing library : libFLAC 1.3.2 (UTC 2017-01-01) Default : Yes Forced : No Text ID : 2 Format : ASS Codec ID : S_TEXT/ASS Codec ID/Info : Advanced Sub Station Alpha Duration : 5 min 38 s Bit rate : 1 216 b/s Count of elements : 48 Compression mode : Lossless Stream size : 50.3 KiB (0%) Default : Yes Forced : No

File list

  • Shelter. BD60fps.mkv (123.6 MiB)
Thanks for the memes.

You_Watanabe (uploader)

User
Sorry I am .... Start seeding now

You_Watanabe (uploader)

User
sama sama Bayu [Kresbayy]
just saying but don't u think there is a very big difference between the original 23fps video & your 60fps one. Cuz, for some reason the 23fps one looks good for some reason. *Just saying**no Offense* BTW the clarity and Audio is crystal clear!!!! Thx for the torrent :) And again no offense