Hunter.x.Hunter.Phantom.Rouge.2013.1080p.Blu-Ray.10-Bit.Dual-Audio.DTS-HD.x265-iAHD.mkv

Category:
Date:
2018-03-14 16:28 UTC
Submitter:
Seeders:
1
Information:
No information.
Leechers:
1
File size:
5.9 GiB
Completed:
426
Info hash:
a22b5b207e7fa54a0f1f506e4f8aaba13cbe5537
Video ID : 1 Format : HEVC Format/Info : High Efficiency Video Coding Format profile : Main 10@L5@Main Codec ID : V_MPEGH/ISO/HEVC Duration : 1 h 36 min Bit rate : 4 491 kb/s Width : 1 920 pixels Height : 1 080 pixels Display aspect ratio : 16:9 Frame rate mode : Constant Frame rate : 23.976 (24000/1001) FPS Color space : YUV Chroma subsampling : 4:2:0 Bit depth : 10 bits Bits/(Pixel*Frame) : 0.090 Stream size : 3.04 GiB (51%) Writing library : x265 2.6:[Windows][GCC 7.1.0][64 bit] 10bit Encoding settings : cpuid=1173503 / frame-threads=4 / numa-pools=16 / wpp / no-pmode / no-pme / no-psnr / no-ssim / log-level=2 / input-csp=1 / input-res=1920x1080 / interlace=0 / total-frames=0 / level-idc=0 / high-tier=1 / uhd-bd=0 / ref=6 / no-allow-non-conformance / no-repeat-headers / annexb / no-aud / no-hrd / info / hash=0 / no-temporal-layers / open-gop / min-keyint=24 / keyint=240 / bframes=16 / b-adapt=2 / b-pyramid / bframe-bias=0 / rc-lookahead=50 / lookahead-slices=4 / scenecut=40 / no-intra-refresh / ctu=32 / min-cu-size=8 / rect / no-amp / max-tu-size=32 / tu-inter-depth=1 / tu-intra-depth=3 / limit-tu=0 / rdoq-level=2 / dynamic-rd=0.00 / no-ssim-rd / signhide / tskip / nr-intra=0 / nr-inter=0 / no-constrained-intra / strong-intra-smoothing / max-merge=3 / limit-refs=3 / limit-modes / me=3 / subme=3 / merange=57 / temporal-mvp / weightp / no-weightb / no-analyze-src-pics / deblock=0:0 / sao / no-sao-non-deblock / rd=4 / no-early-skip / rskip / no-fast-intra / tskip-fast / no-cu-lossless / no-b-intra / no-splitrd-skip / rdpenalty=0 / psy-rd=2.00 / psy-rdoq=1.00 / no-rd-refine / analysis-reuse-mode=0 / no-lossless / cbqpoffs=0 / crqpoffs=0 / rc=crf / crf=16.0 / qcomp=0.60 / qpstep=4 / stats-write=0 / stats-read=0 / ipratio=1.40 / pbratio=1.30 / aq-mode=3 / aq-strength=0.80 / cutree / zone-count=0 / no-strict-cbr / qg-size=32 / no-rc-grain / qpmax=69 / qpmin=0 / no-const-vbv / sar=1 / overscan=0 / videoformat=5 / range=0 / colorprim=1 / transfer=1 / colormatrix=1 / chromaloc=0 / display-window=0 / max-cll=0,0 / min-luma=0 / max-luma=1023 / log2-max-poc-lsb=8 / vui-timing-info / vui-hrd-info / slices=1 / no-opt-qp-pps / no-opt-ref-list-length-pps / no-multi-pass-opt-rps / scenecut-bias=0.05 / no-opt-cu-delta-qp / no-aq-motion / no-hdr / no-hdr-opt / no-dhdr10-opt / analysis-reuse-level=5 / scale-factor=0 / refine-intra=0 / refine-inter=0 / refine-mv=0 / no-limit-sao / ctu-info=0 / no-lowpass-dct / refine-mv-type=0 / copy-pic=1 Language : Japanese Default : Yes Forced : No Color range : Limited Color primaries : BT.709 Transfer characteristics : BT.709 Matrix coefficients : BT.709 Audio #1 ID : 2 Format : DTS Format/Info : Digital Theater Systems Format profile : MA / Core Codec ID : A_DTS Duration : 1 h 36 min Bit rate mode : Variable / Constant Bit rate : 2 141 kb/s / 1 509 kb/s Channel(s) : 6 channels Channel positions : Front: L C R, Side: L R, LFE Sampling rate : 48.0 kHz Frame rate : 93.750 FPS (512 SPF) Bit depth : 16 bits Compression mode : Lossless / Lossy Stream size : 1.45 GiB (24%) Language : English Default : Yes Forced : No Audio #2 ID : 3 Format : DTS Format/Info : Digital Theater Systems Format profile : MA / Core Codec ID : A_DTS Duration : 1 h 36 min Bit rate mode : Variable / Constant Bit rate : 2 137 kb/s / 1 509 kb/s Channel(s) : 6 channels Channel positions : Front: L C R, Side: L R, LFE Sampling rate : 48.0 kHz Frame rate : 93.750 FPS (512 SPF) Bit depth : 16 bits Compression mode : Lossless / Lossy Stream size : 1.45 GiB (24%) Language : Japanese Default : No Forced : No Text #1 ID : 4 Format : PGS Muxing mode : zlib Codec ID : S_HDMV/PGS Codec ID/Info : Picture based subtitle format used on BDs/HD-DVDs Duration : 1 h 29 min Bit rate : 1 528 b/s Count of elements : 106 Stream size : 1 002 KiB (0%) Title : Signs / Songs Language : English Default : Yes Forced : No Text #2 ID : 5 Format : PGS Muxing mode : zlib Codec ID : S_HDMV/PGS Codec ID/Info : Picture based subtitle format used on BDs/HD-DVDs Duration : 1 h 34 min Bit rate : 29.1 kb/s Count of elements : 2748 Stream size : 19.7 MiB (0%) Title : Dialogue Language : English Default : No Forced : No Menu 00:00:00.000 : en:Chapter 01 00:07:13.934 : en:Chapter 02 00:15:22.880 : en:Chapter 03 00:24:22.252 : en:Chapter 04 00:31:44.653 : en:Chapter 05 00:40:06.863 : en:Chapter 06 00:49:10.865 : en:Chapter 07 00:57:03.712 : en:Chapter 08 01:04:23.068 : en:Chapter 09 01:13:02.879 : en:Chapter 10 01:19:58.711 : en:Chapter 11 01:27:32.581 : en:Chapter 12

File list

  • Hunter.x.Hunter.Phantom.Rouge.2013.1080p.Blu-Ray.10-Bit.Dual-Audio.DTS-HD.x265-iAHD.mkv (5.9 GiB)
Are u gonna do movie 2, the last mission? Thanks!
Thanks. Video 10. Audio 10. Movie 8. My laptop was unable to play video without lag at some points. I was using vlc btw.
Could someone seed this, please?