[CyC] Gugure! Kokkuri-san + Specials (BD 1080p Hi10 x264 FLAC)

Category:
Date:
2018-03-13 17:09 UTC
Submitter:
Seeders:
2
Information:
No information.
Leechers:
0
File size:
12.2 GiB
Completed:
129
Info hash:
418d7bdd7447d2e7d4df6e84e365b846eeb66f9b
This release takes Beatrice-Raws and uses Doki subtitles. I didn't do much with the subtitles since not much modification was really needed. Just a few edits here and there. Media Info ``` General Unique ID : 213196557799680864876816735129547010694 (0xA06429D936B8FCE4A86092C70E6B7286) Complete name : [CyC] Gugure! Kokkuri-san 01 (BD 1080p Hi10 x264 FLAC) [7EA2CCE8].mkv Format : Matroska Format version : Version 4 / Version 2 File size : 990 MiB Duration : 24 min 27 s Overall bit rate mode : Variable Overall bit rate : 5 659 kb/s Movie name : Doll Girl Meets Kokkuri-san! Encoded date : UTC 2018-03-01 16:13:40 Writing application : mkvmerge v9.7.1 ('Pandemonium') 64bit Writing library : libebml v1.3.4 + libmatroska v1.4.5 Attachments : CronosPro-Bold_1.otf / EraserDust.TTF / Franklin Gothic Medium.ttf / Hyouka-Brush2 Bold.ttf / Jennifer's Hand Writing.ttf / LT_CorinthianMedium.ttf / Merienda One.ttf / mikachan_1.ttf / VAG Rounded BT.TTF / VestaPro-Bold.otf / VestaPro-BoldItalic.otf / Yikes!.TTF / ZeroGene_1.ttf / Alberta Regular_1.ttf / Baar Sophia.TTF / CandelaBold.otf / Chinacat_0.ttf Video ID : 1 Format : AVC Format/Info : Advanced Video Codec Format profile : High 10@L5 Format settings, CABAC : Yes Format settings, RefFrames : 4 frames Codec ID : V_MPEG4/ISO/AVC Duration : 24 min 26 s Bit rate : 4 955 kb/s Width : 1 920 pixels Height : 1 080 pixels Display aspect ratio : 16:9 Frame rate mode : Constant Frame rate : 23.976 (24000/1001) FPS Color space : YUV Chroma subsampling : 4:2:0 Bit depth : 10 bits Scan type : Progressive Bits/(Pixel*Frame) : 0.100 Stream size : 866 MiB (88%) Writing library : x264 core 148 r2694 3b70645 Encoding settings : cabac=1 / ref=4 / deblock=1:-2:-2 / analyse=0x3:0x133 / me=umh / subme=9 / psy=1 / psy_rd=1.00:0.00 / mixed_ref=1 / me_range=32 / chroma_me=1 / trellis=2 / 8x8dct=1 / cqm=0 / deadzone=21,11 / fast_pskip=1 / chroma_qp_offset=-2 / threads=12 / lookahead_threads=2 / sliced_threads=0 / nr=0 / decimate=1 / interlaced=0 / bluray_compat=0 / constrained_intra=0 / bframes=7 / b_pyramid=2 / b_adapt=2 / b_bias=0 / direct=1 / weightb=1 / open_gop=0 / weightp=2 / keyint=250 / keyint_min=23 / scenecut=40 / intra_refresh=0 / rc=crf / mbtree=0 / crf=16.5 / qcomp=0.72 / qpmin=0 / qpmax=81 / qpstep=4 / ip_ratio=1.40 / pb_ratio=1.30 / aq=1:1.00 Language : Japanese Default : Yes Forced : No Color range : Limited Color primaries : BT.709 Transfer characteristics : BT.709 Matrix coefficients : BT.709 Audio ID : 2 Format : FLAC Format/Info : Free Lossless Audio Codec Codec ID : A_FLAC Duration : 24 min 26 s Bit rate mode : Variable Bit rate : 651 kb/s Channel(s) : 2 channels Channel positions : Front: L R Sampling rate : 48.0 kHz Frame rate : 11.719 FPS (4096 SPF) Bit depth : 16 bits Stream size : 114 MiB (12%) Writing library : libFLAC 1.3.1 (UTC 2014-11-25) Language : Japanese Default : Yes Forced : No Text ID : 3 Format : ASS Codec ID : S_TEXT/ASS Codec ID/Info : Advanced Sub Station Alpha Duration : 24 min 0 s Bit rate : 684 b/s Count of elements : 1353 Compression mode : Lossless Stream size : 120 KiB (0%) Title : Doki Language : English Default : Yes Forced : No Menu 00:00:00.000 : en:Main 00:22:30.848 : en:OP 00:24:00.928 : en:Epilogue 00:24:15.943 : en:Preview ```

File list

  • [CyC] Gugure! Kokkuri-san (BD 1080p Hi10 x264 FLAC)
    • Specials
      • [CyC] Gugure! Kokkuri-san Special 01 (BD 1080p Hi10 x264 FLAC) [5A4D207D].mkv (111.6 MiB)
      • [CyC] Gugure! Kokkuri-san Special 02 (BD 1080p Hi10 x264 FLAC) [1C0AFEC2].mkv (95.3 MiB)
      • [CyC] Gugure! Kokkuri-san Special 03 (BD 1080p Hi10 x264 FLAC) [999A1B98].mkv (115.0 MiB)
      • [CyC] Gugure! Kokkuri-san Special 04 (BD 1080p Hi10 x264 FLAC) [B7FBC35C].mkv (133.7 MiB)
      • [CyC] Gugure! Kokkuri-san Special 05 (BD 1080p Hi10 x264 FLAC) [9D008FDF].mkv (67.6 MiB)
      • [CyC] Gugure! Kokkuri-san Special 06 (BD 1080p Hi10 x264 FLAC) [EFBB9551].mkv (109.1 MiB)
      • [CyC] Gugure! Kokkuri-san Special 07 (BD 1080p Hi10 x264 FLAC) [0D43001A].mkv (166.3 MiB)
      • [CyC] Gugure! Kokkuri-san Special 08 (BD 1080p Hi10 x264 FLAC) [1221ACB9].mkv (95.2 MiB)
      • [CyC] Gugure! Kokkuri-san Special 09 (BD 1080p Hi10 x264 FLAC) [D4028BF5].mkv (105.5 MiB)
      • [CyC] Gugure! Kokkuri-san Special 10 (BD 1080p Hi10 x264 FLAC) [72F71264].mkv (133.2 MiB)
      • [CyC] Gugure! Kokkuri-san Special 11 (BD 1080p Hi10 x264 FLAC) [F5D02755].mkv (205.6 MiB)
    • [CyC] Gugure! Kokkuri-san 01 (BD 1080p Hi10 x264 FLAC) [7EA2CCE8].mkv (989.8 MiB)
    • [CyC] Gugure! Kokkuri-san 02 (BD 1080p Hi10 x264 FLAC) [6AC14D02].mkv (976.2 MiB)
    • [CyC] Gugure! Kokkuri-san 03 (BD 1080p Hi10 x264 FLAC) [6BD76725].mkv (925.1 MiB)
    • [CyC] Gugure! Kokkuri-san 04 (BD 1080p Hi10 x264 FLAC) [AA794DA9].mkv (887.3 MiB)
    • [CyC] Gugure! Kokkuri-san 05 (BD 1080p Hi10 x264 FLAC) [1C6ADE71].mkv (997.7 MiB)
    • [CyC] Gugure! Kokkuri-san 06 (BD 1080p Hi10 x264 FLAC) [3717DCBE].mkv (865.4 MiB)
    • [CyC] Gugure! Kokkuri-san 07 (BD 1080p Hi10 x264 FLAC) [85D8518A].mkv (961.9 MiB)
    • [CyC] Gugure! Kokkuri-san 08 (BD 1080p Hi10 x264 FLAC) [C28F4D0A].mkv (901.2 MiB)
    • [CyC] Gugure! Kokkuri-san 09 (BD 1080p Hi10 x264 FLAC) [0CB27C57].mkv (901.6 MiB)
    • [CyC] Gugure! Kokkuri-san 10 (BD 1080p Hi10 x264 FLAC) [8AD7E84E].mkv (931.0 MiB)
    • [CyC] Gugure! Kokkuri-san 11 (BD 1080p Hi10 x264 FLAC) [1109F7D1].mkv (921.3 MiB)
    • [CyC] Gugure! Kokkuri-san 12 (BD 1080p Hi10 x264 FLAC) [0F5D4811].mkv (934.0 MiB)

Comments - 1