[Eri Watanabe] Noragami Aragoto NCOP 60fps Fixed 720p FLAC

Category:
Date:
2018-03-10 02:38 UTC
Submitter:
Seeders:
0
Information:
No information.
Leechers:
0
File size:
59.3 MiB
Completed:
16
Info hash:
d0060b13d218ad4bfac8e57b324a3716e0f65902
Note :V Please keep Uploading I using AVC L3.2 To Reduce artifacts´╗┐ Video ID : 1 Format : AVC Format/Info : Advanced Video Codec Format profile : High@L3.2 Format settings : CABAC / 3 Ref Frames Format settings, CABAC : Yes Format settings, ReFrames : 3 frames Codec ID : V_MPEG4/ISO/AVC Duration : 1 min 32 s Bit rate : 3 775 kb/s Width : 1 280 pixels Height : 720 pixels Display aspect ratio : 16:9 Frame rate mode : Constant Frame rate : 60.000 FPS Color space : YUV Chroma subsampling : 4:2:0 Bit depth : 8 bits Scan type : Progressive Bits/(Pixel*Frame) : 0.068 Stream size : 41.4 MiB (70%) Default : Yes Forced : No Audio ID : 2 Format : FLAC Format/Info : Free Lossless Audio Codec Codec ID : A_FLAC Duration : 1 min 32 s Bit rate mode : Variable Bit rate : 1 622 kb/s Channel(s) : 2 channels Channel positions : Front: L R Sampling rate : 48.0 kHz Frame rate : 11.728 FPS (4093 SPF) Bit depth : 24 bits Stream size : 17.8 MiB (30%) Writing library : libFLAC 1.2.1 (UTC 2007-09-17) Default : Yes Forced : No

File list

  • Noragami Aragoto NCOP 60fps 720p.mkv (59.3 MiB)
Damn Watanabe, back at it again with the interpolation meme. Nice.
**NCOP 60fps Fixed** > Format profile : High@L3.2 > Format settings : CABAC / 3 Ref Frames > Format settings, ReFrames : 3 frames Bruh­čÖä­čś▒

You_Watanabe (uploader)

User
i try New Setting ......and this is The Result :V and ..... i want ask how to change account picture?