[UM] CHiCO with HoneyWorks - Nostalgic Rainfall (WEB 1920x1080 x264 FLAC-AAC).mkv

Category:
Date:
2018-03-07 06:06 UTC
Submitter:
Seeders:
0
Information:
No information.
Leechers:
0
File size:
158.3 MiB
Completed:
51
Info hash:
94c74a20c68846a3caaf463d2b0c6b90e4e14906
#### CHiCO with HoneyWorks - Nostalgic Rainfall (Koi wa Ameagari no You ni OP) #### DDL => [MEGA](https://mega.nz/#!Q6BjXIDR!6e5q-_EJZwFoxnbf_Xslo-FJOv7JiuHVTF7kbuyYCZs) ![alt text](https://i.imgur.com/HcXz4v7.png) ![alt text](https://i.imgur.com/rgzWhEQ.png) #### MediaInfo: ``` General Unique ID : 167117077781083870727444909590107114149 (0x7DB9941419B4ED5AE5BAA2DF673BCAA5) Complete name : [UM] CHiCO with HoneyWorks - Nostalgic Rainfall (WEB 1920x1080 x264 FLAC-AAC).mkv Format : Matroska Format version : Version 4 / Version 2 File size : 158 MiB Duration : 4 min 0 s Overall bit rate mode : Variable Overall bit rate : 5 531 kb/s Movie name : [UchiMaki] CHiCO with HoneyWorks - Nostalgic Rainfall Writing application : mkvmerge v21.0.0 ('Tardigrades Will Inherit The Earth') 64-bit Writing library : libebml v1.3.5 + libmatroska v1.4.8 Video ID : 1 Format : AVC Format/Info : Advanced Video Codec Format profile : High@L4.1 Format settings, CABAC : Yes Format settings, RefFrames : 4 frames Codec ID : V_MPEG4/ISO/AVC Duration : 4 min 0 s Bit rate : 3 512 kb/s Width : 1 920 pixels Height : 1 080 pixels Display aspect ratio : 16:9 Frame rate mode : Constant Frame rate : 29.970 (30000/1001) FPS Color space : YUV Chroma subsampling : 4:2:0 Bit depth : 8 bits Scan type : Progressive Bits/(Pixel*Frame) : 0.057 Stream size : 100 MiB (63%) Title : CHiCO with HoneyWorks - Nostalgic Rainfall (x264 1920x1080 8bit) Writing library : x264 core 155 r2893 b00bcaf Encoding settings : cabac=1 / ref=3 / deblock=1:0:0 / analyse=0x3:0x113 / me=hex / subme=7 / psy=1 / psy_rd=1.00:0.00 / mixed_ref=1 / me_range=16 / chroma_me=1 / trellis=1 / 8x8dct=1 / cqm=0 / deadzone=21,11 / fast_pskip=1 / chroma_qp_offset=-2 / threads=3 / lookahead_threads=1 / sliced_threads=0 / nr=0 / decimate=1 / interlaced=0 / bluray_compat=0 / constrained_intra=0 / bframes=3 / b_pyramid=2 / b_adapt=1 / b_bias=0 / direct=1 / weightb=1 / open_gop=0 / weightp=2 / keyint=300 / keyint_min=30 / scenecut=40 / intra_refresh=0 / rc_lookahead=40 / rc=crf / mbtree=1 / crf=22.0 / qcomp=0.60 / qpmin=0 / qpmax=69 / qpstep=4 / vbv_maxrate=62500 / vbv_bufsize=78125 / crf_max=0.0 / nal_hrd=none / filler=0 / ip_ratio=1.40 / aq=1:1.00 Language : Japanese Default : Yes Forced : No Color range : Limited Color primaries : BT.709 Transfer characteristics : BT.709 Matrix coefficients : BT.709 Audio #1 ID : 2 Format : FLAC Format/Info : Free Lossless Audio Codec Codec ID : A_FLAC Duration : 4 min 0 s Bit rate mode : Variable Bit rate : 1 810 kb/s Channel(s) : 2 channels Channel positions : Front: L R Sampling rate : 48.0 kHz Frame rate : 10.418 FPS (4607 SPF) Bit depth : 24 bits Stream size : 51.8 MiB (33%) Title : FLAC Language : Japanese Default : Yes Forced : No Audio #2 ID : 3 Format : AAC Format/Info : Advanced Audio Codec Format profile : LC Codec ID : A_AAC Duration : 4 min 0 s Bit rate : 207 kb/s Channel(s) : 2 channels Channel positions : Front: L R Sampling rate : 48.0 kHz Frame rate : 46.875 FPS (1024 SPF) Compression mode : Lossy Stream size : 5.91 MiB (4%) Title : AAC Language : Japanese Default : No Forced : No ``` #### Please continue seeding Senpai, if possible 😊 ![alt text](https://i.imgur.com/8Cs5lKS.png) ![alt text](https://i.imgur.com/tHQkuN3.png)

File list

  • [UM] CHiCO with HoneyWorks - Nostalgic Rainfall (WEB 1920x1080 x264 FLAC-AAC).mkv (158.3 MiB)