(RAW)[God of Isekai] Mi Yu Xing Zhe (Uncharted Walker) Episode 1 [HD][MKV x264 8bits][bilibili]

Category:
Date:
2018-02-13 14:09 UTC
Submitter:
Seeders:
0
Information:
Leechers:
0
File size:
328.4 MiB
Completed:
0
Info hash:
9ffad6e5b1b47b5a580b15e7fbfa1b17843d7166
## Welcome! :3 ### Please more seeds!!! **_Imagem:_** ![alt text](https://files.catbox.moe/f9kkc8.jpg "Image") **_Information:_** Download Ext (DLL): https://mega.nz/#F!P0YXyBQY!npy8UyO3J2fmgtjS1vHewg RAW By: Leo S. ~Wazu (DivineWazu / IzumiLSk ) Visit: https://goisekai.fansubs.com.br Discord Server: https://discord.gg/U2kUkpB **_Mediainfo: _** Video ID : 1 Format : AVC Format/Info : Advanced Video Codec Format profile : High@L3.1 Format settings : CABAC / 4 Ref Frames Format settings, CABAC : Yes Format settings, ReFrames : 4 frames Codec ID : V_MPEG4/ISO/AVC Duration : 23 min 34 s Bit rate : 1 723 kb/s Width : 1 280 pixels Height : 720 pixels Display aspect ratio : 16:9 Frame rate mode : Constant Frame rate : 24.000 FPS Color space : YUV Chroma subsampling : 4:2:0 Bit depth : 8 bits Scan type : Progressive Bits/(Pixel*Frame) : 0.078 Stream size : 291 MiB (89%) Title : RIP By God of Isekai (Video) Writing library : Lagranji Encoder v2.3.3 Language : Chinese Default : Yes Forced : No Audio ID : 2 Format : AAC Format/Info : Advanced Audio Codec Format profile : LC Codec ID : A_AAC-2 Duration : 23 min 34 s Bit rate : 192 kb/s Channel(s) : 2 channels Channel positions : Front: L R Sampling rate : 48.0 kHz Frame rate : 46.875 FPS (1024 SPF) Compression mode : Lossy Delay relative to video : -83 ms Stream size : 32.4 MiB (10%) Title : RIP By God of Isekai (Áudio) Language : Chinese Default : Yes Forced : No Thanks you :3 !!

File list

  • Mi Yu Xing Zhe (Uncharted Walker) Episode 1.mkv (328.4 MiB)

Comments - 0